В парилке жизни / Miesten Vuoro / Steam of Life (Йонас Бергхяль, Мика Хотакайнен / Joonas Berghäll, Mika Hotakainen) [2010, Финляндия, драма, документальный, DVDRip] Sub rus + original fin


Статистика раздачи [Обновить пиров]
Размер:  700 MB   |    Зарегистрирован:  1 год 1 месяц   |    Скачан:  0 раз

Полного источника не было: Никогда

 
   
 
 
 

[Цитировать]

В парилке жизни / Miesten Vuoro / Steam of Life- Страна: Финляндия
Жанр: драма, документальный
Год выпуска: 2010
Продолжительность: 01:20:12
Перевод: Субтитры
Доп.инфо о переводе: авторский / askh
Cубтитры: русские ( +финские, шведские, английские)
Оригинальная аудиодорожка: финский
Режиссер: Йонас Бергхяль, Мика Хотакайнен / Joonas Berghäll, Mika Hotakainen
В ролях: Тимо Аальто, Марти Ахман, Пекка Ахонен и др.
Описание: Финская сауна, суровые парни изливают друг другу душу, смывая с себя грязь и вместе с ней свои заботы. Фильм - путешествие по саунам Финляндии в тёплой компании самых разных людей, рассказывающих друг другу самые трогательные истории о любви, смерти, рождении и дружбе, в общем, о жизни.
Доп. информация:
Сэмпл: http://multi-up.com/425843
Качество видео: DVDRip
Формат видео: MKV
Видео: H264, 720x384, 1.875:1, 25 FPS, 835Kbps
Аудио: AC3 Dolby Digital 5.1, 48000Hz, 384Kbps
Формат субтитров: softsub (SRT)
Доп. информация о субтитрах: русские субтитры в кодировке Unicode (UTF-8) / финские, шведские, английские - в ANSI

MediaInfo

General
Unique ID : 182194767742177809991060085493489507520 (0x89116F9685A33F73B6FD23D024549CC0)
Complete name : /Users/askh/Downloads/torrents/Miesten Vuoro/Miesten.Vuoro.2010.DVDRip.mkv
Format : Matroska
File size : 700 MiB
Duration : 1h 20mn
Overall bit rate : 1 220 Kbps
Movie name : Done with HDConvertToX v.2.5.649.4295
Encoded date : UTC 2010-10-14 00:36:55
Writing application : mkvmerge v3.3.0 ('Language') built on Mar 24 2010 14:59:24
Writing library : libebml v0.8.0 + libmatroska v0.9.0
Video
ID : 1
Format : AVC
Format/Info : Advanced Video Codec
Format profile : High@L3.0
Format settings, CABAC : Yes
Format settings, ReFrames : 4 frames
Codec ID : V_MPEG4/ISO/AVC
Duration : 1h 20mn
Bit rate : 835 Kbps
Width : 720 pixels
Height : 384 pixels
Display aspect ratio : 1.875
Frame rate : 25.000 fps
Color space : YUV
Chroma subsampling : 4:2:0
Bit depth : 8 bits
Scan type : Progressive
Bits/(Pixel*Frame) : 0.121
Stream size : 466 MiB (67%)
Writing library : x264 core 92 r1510 33d382a
Encoding settings : cabac=1 / ref=4 / deblock=1:0:0 / analyse=0x3:0x113 / me=umh / subme=9 / psy=1 / psy_rd=1.00:0.00 / mixed_ref=1 / me_range=16 / chroma_me=1 / trellis=0 / 8x8dct=1 / cqm=0 / deadzone=21,11 / fast_pskip=1 / chroma_qp_offset=-2 / threads=1 / sliced_threads=0 / nr=0 / decimate=1 / interlaced=0 / constrained_intra=0 / bframes=4 / b_pyramid=2 / b_adapt=2 / b_bias=0 / direct=3 / wpredb=1 / wpredp=2 / keyint=250 / keyint_min=25 / scenecut=40 / intra_refresh=0 / rc_lookahead=40 / rc=2pass / mbtree=1 / bitrate=835 / ratetol=1.0 / qcomp=0.60 / qpmin=10 / qpmax=51 / qpstep=4 / cplxblur=20.0 / qblur=0.5 / ip_ratio=1.40 / aq=1:1.00
Audio
ID : 2
Format : AC-3
Format/Info : Audio Coding 3
Mode extension : CM (complete main)
Codec ID : A_AC3
Duration : 1h 20mn
Bit rate mode : Constant
Bit rate : 384 Kbps
Channel(s) : 6 channels
Channel positions : Front: L C R, Side: L R, LFE
Sampling rate : 48.0 KHz
Bit depth : 16 bits
Compression mode : Lossy
Stream size : 220 MiB (31%)
Language : Finnish

Скриншот c названием фильма

Скриншоты

[teatrix.ru].t4721.torrent 
Торрент: Зарегистрирован [ 2015-10-08 00:27 ] · CF833367ADB5BE00B2060E9B2D0033BEB27FFDE8

Скачать .torrent

Скачать

28 KB

Статус: проверено
Скачан: 0 раз
Размер: 700 MB
terms.php



Быстрый ответ

Имя:

      
Для отправки сообщений необходимо включить JavaScript
Показать сообщения:    

Текущее время: 05-Дек 01:25

Часовой пояс: UTC + 3


Вы можете начинать темы
Вы можете отвечать на сообщения
Вы не можете редактировать свои сообщения
Вы не можете удалять свои сообщения
Вы не можете голосовать в опросах
Вы не можете прикреплять файлы к сообщениям
Вы можете скачивать файлы