Баухаус. Лицо двадцатого века / Bauhaus: The face of the twentieth century (Фрэнк Уитфорд / Frank Whitford) [1994, документальный, DVDRip] VO + Original + Sub (rus)


Статистика раздачи [Обновить пиров]
Размер:  703 MB   |    Зарегистрирован:  1 год 2 месяца   |    Скачан:  0 раз

Полного источника не было: Никогда

 
   
 
 
 

[Цитировать]

Баухаус. Лицо двадцатого века
Bauhaus: The face of the twentieth century- Страна: Германия, Великобритания
Жанр: документальный
Год выпуска: 1994
Продолжительность: 00:49:13
Перевод: Профессиональный (одноголосый закадровый)
Cубтитры: русские
Оригинальная аудиодорожка: английский
Режиссер: Фрэнк Уитфорд / Frank Whitford
В ролях: Фрэнк Уитфорд, Чарльз Дженкс, Кристофер Фрэйлинг, Алек Армстронг, Джиллиан Нэйлор, Михель Зибенбродт, Курт Кранц, Питер Хан, Джордж Адамс, Филип Джонсон.
Описание: Высшая школа архитектуры и дизайна "Баухаус", основанная в Веймаере в 1919 году, - одно из наиболее впечатляющих образовательных движений в искусстве XX века. Она оказала большое влияние на современную архитектуру, живопись, скульптуру, дизайн и театр. Основатели школы видели своей целью удовлетворение массовых потребностей населения и стремились сделать промышленные товары красивыми и максимально удобными. С «Баухаусом» связаны такие громкие имена, как: Ханс Майер, Людвиг Мис ван дер Роэ, Василий Кандинский, Пауль Клее и другие. Авторы этого фильма предлагают отправиться в увлекательное путешествие и познакомиться с главными героями этой школы, ее основными концепциями и работами.

Качество видео: DVDRip Исходник
Формат видео: AVI
Видео: 640x464, 25.000 fps, XviD ~1598 kbps avg, 0.223 bit/pixel
Аудио 1: 48 kHz, AC3, 2 ch, ~192 kbps avg - русский
Аудио 2: 48 kHz, AC3, 2 ch, ~192 kbps avg - английский
Субтитры: внешние sr

MediaInfo

General
Complete name                    : F:\video\Баухаус. Лицо двадцатого века. 1994\Bauhaus DVDRip.avi
Format                           : AVI
Format/Info                      : Audio Video Interleave
File size                        : 703 MiB
Duration                         : 49mn 13s
Overall bit rate                 : 1 997 Kbps
Writing application              : VirtualDubMod 1.5.10.2 (build 2540/release)
Writing library                  : VirtualDubMod build 2540/release
Video
ID                               : 0
Format                           : MPEG-4 Visual
Format profile                   : Advanced Simple@L5
Format settings, BVOP            : Yes
Format settings, QPel            : No
Format settings, GMC             : No warppoints
Format settings, Matrix          : Default (MPEG)
Codec ID                         : XVID
Codec ID/Hint                    : XviD
Duration                         : 49mn 13s
Bit rate                         : 1 598 Kbps
Width                            : 640 pixels
Height                           : 448 pixels
Display aspect ratio             : 1.429
Frame rate                       : 25.000 fps
Color space                      : YUV
Chroma subsampling               : 4:2:0
Bit depth                        : 8 bits
Scan type                        : Progressive
Bits/(Pixel*Frame)               : 0.223
Stream size                      : 563 MiB (80%)
Writing library                  : XviD 1.2.1 (UTC 2008-12-04)
Audio #1
ID                               : 1
Format                           : AC-3
Format/Info                      : Audio Coding 3
Mode extension                   : CM (complete main)
Codec ID                         : 2000
Duration                         : 49mn 13s
Bit rate mode                    : Constant
Bit rate                         : 192 Kbps
Channel(s)                       : 2 channels
Channel positions                : Front: L R
Sampling rate                    : 48.0 KHz
Bit depth                        : 16 bits
Stream size                      : 67.6 MiB (10%)
Alignment                        : Split accross interleaves
Interleave, duration             : 40 ms (1.00 video frame)
Interleave, preload duration     : 500 ms
Title                            : русский
Audio #2
ID                               : 2
Format                           : AC-3
Format/Info                      : Audio Coding 3
Mode extension                   : CM (complete main)
Codec ID                         : 2000
Duration                         : 49mn 13s
Bit rate mode                    : Constant
Bit rate                         : 192 Kbps
Channel(s)                       : 2 channels
Channel positions                : Front: L R
Sampling rate                    : 48.0 KHz
Bit depth                        : 16 bits
Stream size                      : 67.6 MiB (10%)
Alignment                        : Split accross interleaves
Interleave, duration             : 40 ms (1.00 video frame)
Interleave, preload duration     : 500 ms
Title                            : english

Скриншот c названием фильма

Скриншоты

[teatrix.ru].t4724.torrent 
Торрент: Зарегистрирован [ 2015-10-08 00:27 ] · 722EF4FA335441A5B8C302C53F010397E4864C8C

Скачать .torrent

Скачать

14 KB

Статус: проверено
Скачан: 0 раз
Размер: 703 MB
terms.php



Быстрый ответ

Имя:

      
Для отправки сообщений необходимо включить JavaScript
Показать сообщения:    

Текущее время: 11-Дек 13:02

Часовой пояс: UTC + 3


Вы можете начинать темы
Вы можете отвечать на сообщения
Вы не можете редактировать свои сообщения
Вы не можете удалять свои сообщения
Вы не можете голосовать в опросах
Вы не можете прикреплять файлы к сообщениям
Вы можете скачивать файлы