Дневник режиссёра / Block-notes di un regista / A Director's Notebook (Федерико Феллини / Federico Fellini) [1969, Италия, Документальный, DVDRip] Original + Sub (Rus, Eng)


Статистика раздачи [Обновить пиров]
Размер:  300 MB   |    Зарегистрирован:  1 год 2 месяца   |    Скачан:  1 раз

Полного источника не было: 5 месяцев 27 дней

 
   
 
 
 

[Цитировать]

Дневник режиссёра
Block-notes di un regista / A Director's Notebook-
Страна: Италия
Жанр: Документальный
Год выпуска: 1969
Продолжительность: 00:51:02
Перевод: Субтитры
Режиссер: Федерико Феллини / Federico Fellini
В ролях: Федерико Феллини, Джульетта Мазина, Марчелло Мастроянни, Катерина Боратто, Марина Боратто, Паскуалино Де Сантис, Эннио Антонелли
Описание: Документальный фильм, приоткрывающий творческую кухню великого режиссера Федерико Феллини. Затрагивается его работа над «Сатириконом» и «Ночами Кабирии», совместная работа с Марчелло Мастроянни, высказываются идеи и соображения для будущего (не снятого) фильма.
Sample
Качество видео: DVDRip
Формат видео: MKV
Видео: Xvid 512x384 (4:3) 23.980 fps 677 kbps
Аудио: MPEG Audio Layer 3 48000Hz stereo 128 kbps Original (English, Italian)
Cубтитры: Russian, English

MediaInfo

General
UniqueID : 223232482248587555500312388153764346826 (0xA7F10320577787E996E48928E859FBCA)
Complete name : E:\Movies\Block-notes di un regista.mkv
Format : Matroska
File size : 300 MiB
Duration : 51mn 2s
Overall bit rate : 822 Kbps
Encoded date : UTC 2011-01-19 09:56:56
Writing application : mkvmerge v4.4.0 ('Die Wiederkehr') сборка от Oct 31 2010 21:52:48
Writing library : libebml v1.0.0 + libmatroska v1.0.0
Video
ID : 1
Format : MPEG-4 Visual
Format profile : Advanced Simple@L5
Format settings, BVOP : Yes
Format settings, QPel : No
Format settings, GMC : No warppoints
Format settings, Matrix : Custom
Codec ID : XVID
Codec ID/Hint : XviD
Duration : 51mn 2s
Bit rate : 677 Kbps
Width : 512 pixels
Height : 384 pixels
Display aspect ratio : 4:3
Frame rate : 23.976 fps
Color space : YUV
Chroma subsampling : 4:2:0
Bit depth : 8 bits
Scan type : Progressive
Compression mode : Lossy
Bits/(Pixel*Frame) : 0.144
Stream size : 247 MiB (82%)
Writing library : XviD 1.1.0 (UTC 2005-11-22)
Audio
ID : 2
Format : MPEG Audio
Format version : Version 1
Format profile : Layer 3
Mode : Joint stereo
Mode extension : MS Stereo
Muxing mode : Header stripping
Codec ID : A_MPEG/L3
Codec ID/Hint : MP3
Duration : 51mn 2s
Bit rate mode : Constant
Bit rate : 128 Kbps
Channel(s) : 2 channels
Sampling rate : 48.0 KHz
Compression mode : Lossy
Stream size : 46.7 MiB (16%)
Writing library : LAME3.97b
Encoding settings : -m j -V 4 -q 2 -lowpass 17 -b 128
Text #1
ID : 3
Format : UTF-8
Codec ID : S_TEXT/UTF8
Codec ID/Info : UTF-8 Plain Text
Language : Russian
Text #2
ID : 4
Format : UTF-8
Codec ID : S_TEXT/UTF8
Codec ID/Info : UTF-8 Plain Text
Language : English

Скриншот c названием фильма

Скриншоты

[teatrix.ru].t4727.torrent 
Торрент: Зарегистрирован [ 2015-10-08 00:27 ] · 1216878A44F3A88DA1B366672D25629290F3C398

Скачать .torrent

Скачать

12 KB

Статус: проверено
Скачан: 1 раз
Размер: 300 MB
terms.php



Быстрый ответ

Имя:

      
Для отправки сообщений необходимо включить JavaScript
Показать сообщения:    

Текущее время: 09-Дек 10:45

Часовой пояс: UTC + 3


Вы можете начинать темы
Вы можете отвечать на сообщения
Вы не можете редактировать свои сообщения
Вы не можете удалять свои сообщения
Вы не можете голосовать в опросах
Вы не можете прикреплять файлы к сообщениям
Вы можете скачивать файлы