Velvet Undeground и Нико / The Velvet Underground and Nico (Энди Уорхол / Andy Warhol) [1966 г., авторское, документальный, DVDRip]


Статистика раздачи [Обновить пиров]
Размер:  743 MB   |    Зарегистрирован:  1 год 1 месяц   |    Скачан:  0 раз

Полного источника не было: Никогда

 
   
 
 
 

[Цитировать]

Velvet Underground и Нико
The Velvet Underground and Nico
-- Год выпуска: 1966
Страна: США
Продолжительность: 01:04:14
Жанр: авторский, документальный
Перевод: не требуется
Русские субтитры: нет
Режиссер: Энди Уорхол / Andy Warhol--В ролях: Кристиан Аарон Булонье, Джон Кейл, Герард Маланга, Стерлинг Моррисон, Билли Нейм, Нико, Лу Рид, Стефен Шор, Морин Таккер, Энди Уорхол
Описание: В "Velvet Underground и Нико" запечатлён концерт известной группы с характерным стилем Уорхола: длинные последовательности, "грязные" образы и т.п. Идея создать группу у Уорхола возникла в 1966 году, и в неё вошли Лу Рид, Стерлинг Моррисон, Джон Кейл и Морин Такер. Сам Уорхол усилил группу, пригласив в группу немецкую актрису и певицу Кристи Паффген, также известную как Ника, которая снималась и в других фильмах Уорхола (в том числе в "Девушки из Челси"). Velvet Underground & Nico было также и названием первого альбома группы.-
-
Качество видео: DVDRip
Формат видео: AVI
Видео: XviD 640x496 (AR 1.290:1) 25fps, 1416kbps
Аудио: AC-3 48kHz 192kbps stereo

MediaInfo

General
Complete name : /media/d/Downloads/Torrent/The.Velvet.Undeground.and.Nico.DVDRip.by.Malky.AllFilms.avi
Format : AVI
Format/Info : Audio Video Interleave
File size : 743 MiB
Duration : 1h 4mn
Overall bit rate : 1 617 Kbps
Video
ID : 0
Format : MPEG-4 Visual
Format profile : Advanced Simple@L5
Format settings, BVOP : 2
Format settings, QPel : No
Format settings, GMC : No warppoints
Format settings, Matrix : Custom
Codec ID : XVID
Codec ID/Hint : XviD
Duration : 1h 4mn
Bit rate : 1 416 Kbps
Width : 640 pixels
Height : 496 pixels
Display aspect ratio : 1.290
Frame rate : 25.000 fps
Color space : YUV
Chroma subsampling : 4:2:0
Bit depth : 8 bits
Scan type : Progressive
Compression mode : Lossy
Bits/(Pixel*Frame) : 0.178
Stream size : 650 MiB (88%)
Writing library : XviD 1.2.1 (UTC 2008-12-04)
Audio
ID : 1
Format : AC-3
Format/Info : Audio Coding 3
Mode extension : CM (complete main)
Codec ID : 2000
Duration : 1h 4mn
Bit rate mode : Constant
Bit rate : 192 Kbps
Channel(s) : 2 channels
Channel positions : Front: L R
Sampling rate : 48.0 KHz
Bit depth : 16 bits
Compression mode : Lossy
Stream size : 88.2 MiB (12%)
Alignment : Aligned on interleaves
Interleave, duration : 40 ms (1.00 video frame)

Скриншоты

[teatrix.ru].t4728.torrent 
Торрент: Зарегистрирован [ 2015-10-08 00:27 ] · B12226764BD489E59F744C18DDE8BCC4C67C09EC

Скачать .torrent

Скачать

30 KB

Статус: проверено
Скачан: 0 раз
Размер: 743 MB
terms.php



Быстрый ответ

Имя:

      
Для отправки сообщений необходимо включить JavaScript
Показать сообщения:    

Текущее время: 03-Дек 01:21

Часовой пояс: UTC + 3


Вы можете начинать темы
Вы можете отвечать на сообщения
Вы не можете редактировать свои сообщения
Вы не можете удалять свои сообщения
Вы не можете голосовать в опросах
Вы не можете прикреплять файлы к сообщениям
Вы можете скачивать файлы