Гнев (Ярость) (часть первая) / La rabbia / Rage (part one) (Пьер Паоло Пазолини / Pier Paolo Pasolini) [1963, Италия, документальный, DVDRip] original + subs (rus, eng, esp)


Статистика раздачи [Обновить пиров]
Размер:  643 MB   |    Зарегистрирован:  1 год 1 месяц   |    Скачан:  1 раз

Полного источника не было: 7 месяцев 8 дней

 
   
 
 
 

[Цитировать]

Гнев (Ярость) / La rabbia- Страна: Италия / Italy
Жанр: документальный
Год выпуска: 1963
Продолжительность: 00:50:46
Перевод: Субтитры в переводе huronnn
Cубтитры: русские, английские, испанские
Оригинальная аудиодорожка: итальянский
Режиссер: Пьер Паоло Пазолини / Pier Paolo Pasolini
В ролях: Джорджо Бассани, Renato Guttuso, Gigi Artuso, Карло Романо, Шарль де Голль, Дуайт Д. Эйзенхауэр, Юрий Гагарин, Ава Гарднер, Никита Хрущев, Владимир Ленин,...
Описание: Документальный фильм в двух частях (в релизе первая из них), в котором используется хроника 1950-х годов с комментариями. Задачей фильма является поиск ответа на экзистенциальный вопрос: "Почему нашей жизнью правят недовольство, страдание, страх войны и конфликт с самим собой?".
Доп. информация: http://www.imdb.com/title/tt0057442/
http://www.kinopoisk.ru/level/1/film/224163/
спасибо, культ!
Сэмпл: http://multi-up.com/405624
Качество видео: DVDRip
Формат видео: AVI
Видео: Xvid 608x480 25.00fps 1 629 Kbps [Stream 00]
Аудио: MPEG Audio Layer 3 48000Hz stereo 128kbps [Stream 01]
Формат субтитров: softsub (SRT)

фрагмент субтитров

1
00:00:02,880 --> 00:00:06,680
Гнев (1963)
2
00:00:08,080 --> 00:00:11,640
Фильм в двух частях
3
00:00:12,880 --> 00:00:17,480
Первая часть. Автор -
Пьера Паоло Пазолини
4
00:00:18,800 --> 00:00:23,480
Вторая часть. Автор -
Джованни Гуареши
5
00:00:24,840 --> 00:00:27,400
Две идеологии,
две противопожные доктрины
6
00:00:27,920 --> 00:00:32,360
ответа на драматический вопрос...
7
00:00:33,600 --> 00:00:35,720
Почему нашей жизнью управляют
8
00:00:36,200 --> 00:00:40,880
недовольство, страдание, страх войны,
и конфликт с самим собой?
9
00:01:04,810 --> 00:01:06,730
Почему нашей жизнью управляют
10
00:01:07,210 --> 00:01:12,290
недовольство, страдание, страх войны,
и конфликт с самим собой?
11
00:01:13,210 --> 00:01:16,490
Чтобы ответить на этот вопрос
я снял этот фильм,
12
00:01:17,770 --> 00:01:21,330
не следуя никакому хронологическому или логическому порядку,
13
00:01:22,050 --> 00:01:24,530
но скорее исходя
из моих политических убеждений...
14
00:01:25,130 --> 00:01:27,290
и моих чувств, как художника и поэта.

MediaInfo

Format : AVI
Format/Info : Audio Video Interleave
File size : 643 MiB
Duration : 50mn 46s
Overall bit rate : 1 769 Kbps
Writing application : MEncoder dev-CVS-051126-18:35-3.3
Writing library : MPlayer
Video
ID : 0
Format : MPEG-4 Visual
Format profile : Simple@L3
Format settings, BVOP : No
Format settings, QPel : No
Format settings, GMC : No warppoints
Format settings, Matrix : Default (H.263)
Codec ID : XVID
Codec ID/Hint : XviD
Duration : 50mn 46s
Bit rate : 1 629 Kbps
Width : 608 pixels
Height : 480 pixels
Display aspect ratio : 5:4
Frame rate : 25.000 fps
Color space : YUV
Chroma subsampling : 4:2:0
Bit depth : 8 bits
Scan type : Progressive
Compression mode : Lossy
Bits/(Pixel*Frame) : 0.223
Stream size : 592 MiB (92%)
Writing library : XviD 1.1.0 RC (UTC 2005-11-22)
Audio
ID : 1
Format : MPEG Audio
Format version : Version 1
Format profile : Layer 3
Mode : Joint stereo
Mode extension : MS Stereo
Codec ID : 55
Codec ID/Hint : MP3
Duration : 50mn 46s
Bit rate mode : Constant
Bit rate : 128 Kbps
Channel(s) : 2 channels
Sampling rate : 48.0 KHz
Compression mode : Lossy
Stream size : 46.5 MiB (7%)
Alignment : Aligned on interleaves
Interleave, duration : 24 ms (0.60 video frame)

Скриншот c названием фильма

Скриншоты

[teatrix.ru].t4736.torrent 
Торрент: Зарегистрирован [ 2015-10-08 00:27 ] · B796CCAD1FCB248A1DA65B24F814CC4936F957F3

Скачать .torrent

Скачать

13 KB

Статус: проверено
Скачан: 1 раз
Размер: 643 MB
terms.php



Быстрый ответ

Имя:

      
Для отправки сообщений необходимо включить JavaScript
Показать сообщения:    

Текущее время: 03-Дек 05:28

Часовой пояс: UTC + 3


Вы можете начинать темы
Вы можете отвечать на сообщения
Вы не можете редактировать свои сообщения
Вы не можете удалять свои сообщения
Вы не можете голосовать в опросах
Вы не можете прикреплять файлы к сообщениям
Вы можете скачивать файлы