Юные сердцем / Young at Heart (Стефен Уолкер / Stephen Walker) [2007, США, документальный, DVDRip] DVO (Культура) + original eng


Статистика раздачи [Обновить пиров]
Размер:  1.45 GB   |    Зарегистрирован:  1 год 2 месяца   |    Скачан:  0 раз

Полного источника не было: Никогда

 
   
 
 
 

[Цитировать]

Юные сердцем / Young at Heart
Страна: США
Жанр: документальный
Год выпуска: 2007
Продолжительность: 01:48:11.992
Перевод: Профессиональный (двухголосый закадровый) Доп.инфо о переводе Культура
Cубтитры: нет
Оригинальная аудиодорожка: английский
Режиссер: Стефен Уолкер / Stephen Walker
В ролях: участники коллектива, руководитель ансамбля, родственники, близкие, друзья и простые зрители по всему миру
Описание: «Young at Heart» (Юные сердцем) - знаменитый американский рок-ансамбль, чей репертуар варьируется от Джеймса Брауна и The Beatles до "Sonic Youth" и "Radiohead". Но если вы подумываете о карьере рок-музыканта, лучше забудьте о «Young at Heart». Вы наверняка для них слишком молоды, ведь средний возраст участников ансамбля - 80 лет. Несмотря на то, что большинство из них - постоянные клиенты больницы, пожилые рокеры игнорируют свой почтенный возраст и вовсю веселятся, колеся по Европе с концертами. Эта документальная картина прослеживает несколько непростых недель из жизни коллектива: они упорно репетируют очень важный концерт в своём родном городке Нортгемптон.
Доп. информация: Приз зрительских симпатий на кинофестивале в Атланте (2008).
http://www.imdb.com/title/tt1047007/
Большое спасибо Bums
Сэмпл: http://multi-up.com/371747
Качество видео: DVDRip therthe (за двд спасибо Briony) - DVB-AVC
Формат видео: AVI
Видео: 720x384 (1.88:1), 23.976 fps, XviD MPEG-4 ~1526 kbps avg, 0.23 bit/pixel
Аудио: Audio #1: 48 kHz, AC3 Dolby Digital, 2/0 (L,R) ch, ~192 kbps русский
Аудио 2: Audio #2: 48 kHz, AC3 Dolby Digital, 2/0 (L,R) ch, ~192 kbps английский

MediaInfo

General
Complete name : D:\Young@Heart (2007).ru-eng.avi
Format : AVI
Format/Info : Audio Video Interleave
File size : 1.45 GiB
Duration : 1h 48mn
Overall bit rate : 1 925 Kbps
Movie name : Young@Heart (2007)
Director : Stephen Walker
Genre : Documentary
Writing application : VirtualDubMod 1.5.10.2 (build 2540/release)
Original source form/Name : Movie
Copyright : rip by therthe sounded by diablo
Comment : thanks to diablo, Chelur
Video
ID : 0
Format : MPEG-4 Visual
Format profile : Advanced Simple@L5
Format settings, BVOP : Yes
Format settings, QPel : No
Format settings, GMC : No warppoints
Format settings, Matrix : Default (MPEG)
Codec ID : XVID
Codec ID/Hint : XviD
Duration : 1h 48mn
Bit rate : 1 527 Kbps
Width : 720 pixels
Height : 384 pixels
Display aspect ratio : 1.875
Frame rate : 23.976 fps
Color space : YUV
Chroma subsampling : 4:2:0
Bit depth : 8 bits
Scan type : Progressive
Bits/(Pixel*Frame) : 0.230
Stream size : 1.15 GiB (79%)
Writing library : XviD 1.2.1 (UTC 2008-12-04)
Audio #1
ID : 1
Format : AC-3
Format/Info : Audio Coding 3
Mode extension : CM (complete main)
Codec ID : 2000
Duration : 1h 48mn
Bit rate mode : Constant
Bit rate : 192 Kbps
Channel(s) : 2 channels
Channel positions : Front: L R
Sampling rate : 48.0 KHz
Bit depth : 16 bits
Video delay : 15ms
Stream size : 149 MiB (10%)
Alignment : Split accross interleaves
Interleave, duration : 42 ms (1.00 video frame)
Interleave, preload duration : 500 ms
Audio #2
ID : 2
Format : AC-3
Format/Info : Audio Coding 3
Format profile : Dolby Digital
Mode extension : CM (complete main)
Codec ID : 2000
Duration : 1h 48mn
Bit rate mode : Constant
Bit rate : 192 Kbps
Channel(s) : 2 channels
Channel positions : Front: L R
Sampling rate : 48.0 KHz
Bit depth : 16 bits
Video delay : 15ms
Stream size : 149 MiB (10%)
Alignment : Split accross interleaves
Interleave, duration : 42 ms (1.00 video frame)
Interleave, preload duration : 500 ms

Скриншоты

ПРОСЬБА ПЕРЕНЕСТИ в раздел артхауса, пожалуйста
[teatrix.ru].t4755.torrent 
Торрент: Зарегистрирован [ 2015-10-08 00:27 ] · B83106D486B2D0466AF7651B432E970FDDDD6CF5

Скачать .torrent

Скачать

15 KB

Статус: проверено
Скачан: 0 раз
Размер: 1.45 GB
terms.php



Быстрый ответ

Имя:

      
Для отправки сообщений необходимо включить JavaScript
Показать сообщения:    

Текущее время: 09-Дек 08:53

Часовой пояс: UTC + 3


Вы можете начинать темы
Вы можете отвечать на сообщения
Вы не можете редактировать свои сообщения
Вы не можете удалять свои сообщения
Вы не можете голосовать в опросах
Вы не можете прикреплять файлы к сообщениям
Вы можете скачивать файлы