БДФ-2005 / BDF-2005 (Роман Абсцесс / Roman Abscess) [2005, Россия, документальный, музыкально-дискуссионный, DVDRip]


Статистика раздачи [Обновить пиров]
Размер:  349 MB   |    Зарегистрирован:  1 год 1 месяц   |    Скачан:  0 раз

Полного источника не было: Никогда

 
   
 
 
 

[Цитировать]

БДФ-2005 / BDF-2005
Страна: Россия
Жанр: документальный, музыкально-дискуссионный
Год выпуска: 2005
Кинокомпания: ДЕГЕНЕРАТ-ВИДЕО
Продолжительность: 00:27:21
Перевод: Не требуется
Cубтитры: нет
Режиссер: Роман Абсцесс / Roman Abscess
В ролях: Миклухо Табакай, Александр ЫЫ, Евгений Амду, Андрей Агаст, Глеб Террорайзер, Валерий Джыппо, Майк Гаврилов, Александр Гримм, Зелла Рагна, Роман Абсцесс.
Описание: Озеро Байкал, лето 2005 года. В поселок Хужир на острове Ольхон приезжает группа творческой молодежи и студентов на ежегодный форум Музыкально-Дисскусионного Клуба "ДИЗЕНТЕРИЯ". Бурхан встречает ребят очень гостеприимно - светит Солнце, щебечут певчие птички, коровы употребляют травку, женщины-туристы голые плещутся в воде… В Райской Лагуне ребята встречают прекрасных нимф - Яну и Марину и сдружаются с ними...
На протяжении получасового фильма ребята и девчата не только поют и танцуют на фоне прекрасной природы, но и беседуют друг с другом и местными жителями на актуальные темы сегодняшнего дня. И даже борются с некультурными иностранцами, которые пытаются засорять священное Озеро отходами своей жизнедеятельности. В этом фильме Добро побеждает Зло…
Трудно передать словами восторг, который испытали участники БДФ-2005 за неделю пребывания на Ольхоне, ведь это были одни из лучших дней в их жизни. Посмотрев фильм, Вы поймете и почувствуете, что ощущали ребята-дегенераты в те дни.
Доп. информация: Фильм включает первую часть трилогии "Человек-Муравей" (00:12:42 - 00:17:57)
Сэмпл: http://multi-up.com/363306
Качество видео: DVDRip
Формат видео: AVI
Видео: XVID, 720x544, 4:3, 25 fps, 1393 Kbps
Аудио: MPEG Audio, 48.0 KHz, 192 Kbps, 2 channels

MediaInfo

General
Complete name : BDF-2005.avi
Format : AVI
Format/Info : Audio Video Interleave
File size : 349 MiB
Duration : 27mn 21s
Overall bit rate : 1 785 Kbps
Writing application : VirtualDubMod 1.5.4.1 (build 2178/release)
Writing library : VirtualDubMod build 2178/release
Video
ID : 0
Format : MPEG-4 Visual
Format profile : Advanced Simple@L5
Format settings, BVOP : Yes
Format settings, QPel : No
Format settings, GMC : No warppoints
Format settings, Matrix : Custom
Codec ID : XVID
Codec ID/Hint : XviD
Duration : 27mn 21s
Bit rate : 1 393 Kbps
Width : 720 pixels
Height : 544 pixels
Display aspect ratio : 4:3
Frame rate : 25.000 fps
Resolution : 8 bits
Colorimetry : 4:2:0
Scan type : Progressive
Bits/(Pixel*Frame) : 0.142
Stream size : 273 MiB (78%)
Writing library : XviD 1.2.0.dev47 (UTC 2006-11-01)
Audio
ID : 1
Format : MPEG Audio
Format version : Version 1
Format profile : Layer 2
Codec ID : 50
Duration : 27mn 21s
Bit rate mode : Constant
Bit rate : 192 Kbps
Channel(s) : 2 channels
Sampling rate : 48.0 KHz
Stream size : 37.6 MiB (12%)
Alignment : Aligned on interleaves
Interleave, duration : 80 ms (2.00 video frames)
Interleave, preload duration : 504 ms

Скриншот c названием фильма

Скриншоты


[teatrix.ru].t4756.torrent 
Торрент: Зарегистрирован [ 2015-10-08 00:27 ] · 8A8B423C2762EDA2D2BC592EE2F692E4D2AE7D6B

Скачать .torrent

Скачать

14 KB

Статус: проверено
Скачан: 0 раз
Размер: 349 MB
terms.php



Быстрый ответ

Имя:

      
Для отправки сообщений необходимо включить JavaScript
Показать сообщения:    

Текущее время: 05-Дек 11:33

Часовой пояс: UTC + 3


Вы можете начинать темы
Вы можете отвечать на сообщения
Вы не можете редактировать свои сообщения
Вы не можете удалять свои сообщения
Вы не можете голосовать в опросах
Вы не можете прикреплять файлы к сообщениям
Вы можете скачивать файлы