Антониони: Документы и Свидетельства / Michelangelo Antonioni storia di un autore / Antonioni: Documents and Testimonial (Джанфранко Мингоцци / Gianfranco Mingozzi) [1966, Италия / Канада, документальный, DVDRip] original + sub (rus, eng)


Статистика раздачи [Обновить пиров]
Размер:  700 MB   |    Зарегистрирован:  1 год 2 месяца   |    Скачан:  0 раз

Полного источника не было: Никогда

 
   
 
 
 

[Цитировать]

Микеланджело Антониони: Документы и Свидетельства
Michelangelo Antonioni storia di un autore / Antonioni: Documents and Testimonial- Страна: Италия / Канада
Жанр: документальный
Год выпуска: 1966
Продолжительность: 00:58:15
Перевод: Субтитры в переводе huronnn
Cубтитры: русские, английские
Оригинальная аудиодорожка: французский, итальянский
Режиссер: Джанфранко Мингоцци / Gianfranco Mingozzi
В ролях:
Michelangelo Antonioni / Микеланджело Антониони
Federico Fellini / Федерико Феллини
Marco Ferreri / Марко Феррери

Francesco Aguiari /Франческо Агуари
Silvio Ceccato / Сильвио Кечато
Antonio Cervi / Антонио Черви
Monica Vitti / Моника витти
Valentina Cortese / Валентина Кортезе
Eraldo Da Roma / Эральдо Да Рома
Otello Fava / Отелло Фава
Ennio Flaiano / Эннио Флаяно
Giovanni Fusco / Джовани Фуско
Francesco Rosi / Франческо Роси
Francesco Maselli / Франческо Маселли
Описание: Этот документальный фильм был сделан для канадского телевидения и назван "Антониони: Документы и свидетельства". Это подходящее название, т.к. Антониони здесь мало говорить, хотя и часто появляется на экране. Здесь ему, как личности, и его работам дают характеристику коллеги, формируя своими высказываниями содержание фильма. Здесь присутствует интервью с Моникой Витти, в том числе и очень откровенный момент с Витти, где она напоминает о катастрофе при показе "Приключения" в 1960 на Каннском кинофестивале. Также композитор Джованни Фуско, режиссер Федерико Феллини (с которым сотрудничал Антониони над сценарием для "Белого шейха" ) и многие другие. Мы также можем видеть редкие съемочные моменты с участием Антониони и кадры сцен, вырезанных из "Приключения".
Доп. информация: http://www.imdb.com/title/tt0186356/
Фильм в DVD существует в виде дополнения к этому изданию... http://www.criterion.com/films/209-lavventura
спасибо, сзечуан!
Сэмпл: http://multi-up.com/367486
Качество видео: DVDRip
Формат видео: AVI
Видео: Video: Xvid 608x464 23.98fps 1 479 Kbps [Stream 00]
Аудио: Audio: MPEG Audio Layer 3 48000Hz stereo 192kbps [Stream 01]
Формат субтитров: softsub (SRT)

MediaInfo

Format : AVI
Format/Info : Audio Video Interleave
File size : 699 MiB
Duration : 58mn 15s
Overall bit rate : 1 678 Kbps
Writing application : VirtualDubMod 1.5.4.1 (build 2178/release)
Writing library : VirtualDubMod build 2178/release
Video
ID : 0
Format : MPEG-4 Visual
Format profile : Advanced Simple@L5
Format settings, BVOP : Yes
Format settings, QPel : No
Format settings, GMC : No warppoints
Format settings, Matrix : Custom
Codec ID : XVID
Codec ID/Hint : XviD
Duration : 58mn 15s
Bit rate : 1 479 Kbps
Width : 608 pixels
Height : 464 pixels
Display aspect ratio : 4:3
Frame rate : 23.976 fps
Resolution : 8 bits
Colorimetry : 4:2:0
Scan type : Progressive
Bits/(Pixel*Frame) : 0.219
Stream size : 617 MiB (88%)
Writing library : XviD 1.2.1 (UTC 2008-12-04)
Audio
ID : 1
Format : MPEG Audio
Format version : Version 1
Format profile : Layer 3
Format_Settings_Mode : Joint stereo
Format_Settings_ModeExtension : MS Stereo
Codec ID : 55
Codec ID/Hint : MP3
Duration : 58mn 15s
Bit rate mode : Constant
Bit rate : 192 Kbps
Channel(s) : 2 channels
Sampling rate : 48.0 KHz
Stream size : 80.0 MiB (11%)
Alignment : Aligned on interleaves
Interleave, duration : 83 ms (2.00 video frames)
Interleave, preload duration : 504 ms
Writing library : LAME3.98r
Encoding settings : -m j -V 4 -q 2 -lowpass 18.6 -b 192

Скриншот c названием фильма

Скриншоты

[teatrix.ru].t4757.torrent 
Торрент: Зарегистрирован [ 2015-10-08 00:27 ] · 21F3C7F4362BEAA133109A6AFB5F1C6C192563FB

Скачать .torrent

Скачать

14 KB

Статус: проверено
Скачан: 0 раз
Размер: 700 MB
terms.php



Быстрый ответ

Имя:

      
Для отправки сообщений необходимо включить JavaScript
Показать сообщения:    

Текущее время: 09-Дек 01:08

Часовой пояс: UTC + 3


Вы можете начинать темы
Вы можете отвечать на сообщения
Вы не можете редактировать свои сообщения
Вы не можете удалять свои сообщения
Вы не можете голосовать в опросах
Вы не можете прикреплять файлы к сообщениям
Вы можете скачивать файлы