БДФ / BDF (Владимир Асмодеус / Vladimir Asmodeus) [2003, Россия, документальный, музыкально-дискуссионный, DVDRip]


Статистика раздачи [Обновить пиров]
Размер:  280 MB   |    Зарегистрирован:  1 год 2 месяца   |    Скачан:  0 раз

Полного источника не было: Никогда

 
   
 
 
 

[Цитировать]

БДФ / BDF
Страна: Россия
Жанр: документальный, музыкально-дискуссионный
Год выпуска: 2003
Кинокомпания: ДЕГЕНЕРАТ-ВИДЕО
Продолжительность: 00:22:58
Перевод: Не требуется
Cубтитры: нет
Режиссер: Владимир Асмодеус / Vladimir Asmodeus
В ролях: Джоник, Илья Грэйв, Глеб Террорайзер, Кирилл Морбид, Владимир Асмодеус, Александр ЫЫ, Евгений Амду, Роман Абсцесс, Никита Кита, Просто Мария.
Описание: Лето 2003 года, турбаза "Теплые Озера", расположенная близ озера Байкал, в отрогах Хамар–Дабана, на берегу прекрасных лесных озер. Группа молодых людей, музыканты известных сибирских вокально-инструментальных ансамблей (иркутского "UNCROSSED", кемеровского "BESTIARY" и ангарского "SCHIZOPHRENIA"), а также их друзья, размещаются в Шахматном Клубе турбазы…
Ребята начинают весьма активный отдых с мощного заплыва в Изумрудном озере, и продолжают песнями и плясками, в ходе которых случайно разламывают несколько кроватей и одну тумбочку, выбивают стекла, сбивают лампы дневного освещения и наносят прочие повреждения Шахматному Клубу. На определенном этапе ребята-дегенераты вновь перемещают общение на озеро Изумрудное, и там, катаясь на катамаране, нечаянно топят его. Отдыхающие в панике покидают пляж…
А через некоторое время освежившиеся "шахматисты" возвращаются в свой Клуб и веселье разгорается с новой силой... Участники событий в один голос утверждают "Это был grindcore...". Фильм отлично подтверждает данную мысль…
Сэмпл: http://multi-up.com/366403
Качество видео: DVDRip
Формат видео: AVI
Видео: XVID, 720x544, 4:3, 25 fps, 1568 Kbps
Аудио: MP3, 44.1 KHz, 128 Kbps, 2 channels

MediaInfo

General
Complete name : BDF-2003.avi
Format : AVI
Format/Info : Audio Video Interleave
File size : 280 MiB
Duration : 22mn 58s
Overall bit rate : 1 703 Kbps
Writing application : VirtualDubMod 1.5.4.1 (build 2178/release)
Writing library : VirtualDubMod build 2178/release
Video
ID : 0
Format : MPEG-4 Visual
Format profile : Advanced Simple@L5
Format settings, BVOP : Yes
Format settings, QPel : No
Format settings, GMC : No warppoints
Format settings, Matrix : Custom
Codec ID : XVID
Codec ID/Hint : XviD
Duration : 22mn 58s
Bit rate : 1 568 Kbps
Width : 720 pixels
Height : 544 pixels
Display aspect ratio : 4:3
Frame rate : 25.000 fps
Resolution : 8 bits
Colorimetry : 4:2:0
Scan type : Progressive
Bits/(Pixel*Frame) : 0.160
Stream size : 258 MiB (92%)
Writing library : XviD 1.2.0.dev47 (UTC 2006-11-01)
Audio
ID : 1
Format : MPEG Audio
Format version : Version 1
Format profile : Layer 3
Format_Settings_Mode : Joint stereo
Codec ID : 55
Codec ID/Hint : MP3
Duration : 22mn 58s
Bit rate mode : Constant
Bit rate : 128 Kbps
Channel(s) : 2 channels
Sampling rate : 44.1 KHz
Stream size : 21.0 MiB (7%)
Alignment : Split accross interleaves
Interleave, duration : 80 ms (2.00 video frames)
Interleave, preload duration : 500 ms

Скриншот c названием фильма

Скриншоты


[teatrix.ru].t4758.torrent 
Торрент: Зарегистрирован [ 2015-10-08 00:27 ] · 587086B60D6B4E515F9C449C4FA5F6B1AF67C766

Скачать .torrent

Скачать

11 KB

Статус: проверено
Скачан: 0 раз
Размер: 280 MB
terms.php



Быстрый ответ

Имя:

      
Для отправки сообщений необходимо включить JavaScript
Показать сообщения:    

Текущее время: 08-Дек 07:04

Часовой пояс: UTC + 3


Вы можете начинать темы
Вы можете отвечать на сообщения
Вы не можете редактировать свои сообщения
Вы не можете удалять свои сообщения
Вы не можете голосовать в опросах
Вы не можете прикреплять файлы к сообщениям
Вы можете скачивать файлы