Божественная мерзость. История Джона Уотерса / Divine Trash: The John Waters Story (Стив Йеджер / Steve Yeager) [1998 г., арт-хаус, китч, биография, документальное кино, DVDRip] AVO (Кузнецов)


Статистика раздачи [Обновить пиров]
Размер:  743 MB   |    Зарегистрирован:  1 год 2 месяца   |    Скачан:  1 раз

Полного источника не было: 7 месяцев 8 дней

 
   
 
 
 

[Цитировать]

Божественная мерзость. История Джона УотерсаDivine Trash: The John Waters Story- Год выпуска: 1998
Страна: США
Жанр: арт-хаус, китч, биография, документальное кино
Продолжительность: 01:36:54
Перевод: авторский (Кузнецов)
Русские субтитры: нет
Режиссер: Стив Йеджер / Steve Yeager
В ролях: Джон Уотерс / John Waters, Дивайн / Divine, Минк Стоул / Mink Stole, Стив Бушеми / Steve Buscemi, Хэл Хартли / Hal Hartley, Джим Джармуш / Jim Jarmusch, Эдит Мэссу / Edith Massey, Пэт Моран / Pat Moran, Пол Моррисси / Paul Morrissey, Мэри Вивиан Пирс / Mary Vivian Pearce, Винсент Пераньо / Vincent Peranio, Джордж Кучер / George Kuchar
Описание: Новый взгляд на ранние годы карьеры культового режиссёра Джона Уотерса, от детских кадров, снятых в его родном Балтиморе, до выпуска самого знаменитого его фильма "Розовый фламинго". В фильме использованы редкие ранее не публиковавшиеся кадры, в том числе интервью 25-летнего Джона Уотерса. "Одобрено цензурой Мэриленда" - так начинается фильм. Мы видим интервью с самим Джоном Уотерсом, его братом, отцом и матерью. Мы слышим звуки, которые он издавал младенцем. В фильмах Уотерса снимался известный трансвестит Дивайн, о котором также пойдёт речь.
Из фильма мы узнаем:
1)Еще будучи ребенком, Уотерс всячески пытался улизнуть из дома, чтобы посмотреть показываемые в открытом кинотеатре для машин фильмы категории «B» - в бинокль с крыши расположенного неподалеку от дома супермаркета.
2)Родтелии Уотерса достаточно хорошо понимали своего сына, они даже привели его на свалку для просмотра разбитых автомобилей, но они никогда не видели фильм «Розовый фламинго».
3)Уотерсу свойственное удивительное очарование. Ему удалось привлечь для съемок в своих ранних фильмах даже ярого политика-консерватора и приходского священника.
4)Уотерс один из немногих людей, кто видел полный 24-часовой фильм Энди Уорхола «Эмпайр Стейтс Билдинг».
5)Фильмы Уотерса не могут быть порнографией, потому что вы должны быть окончательно больным на голову, чтобы мастурбировать на любую из его работ.
6)Образ 300-фунтового трансвестита Дивайна в ранних фильмах Уотреса – это смесь клоунессы Кларабелл (Clarabell the Clown) и актрисы Джейн Мэнсфилд.
7)Фильм «Розовый фламинго» был снят при бюджете $200.
8)В знаменитой сцене поедания собачих какашек в конце «Розового фламинго» всё было натурально! Дивайну пришлось полчаса прогуливаться с пуделем, ожидая пока тот не справит нужду.
Награда Sundance FF 1998 за лучший документальный фильм + номинация на Гран-при.
Приз "Monitor" by International Monitor Awards 1999 за лучший документальный фильм.
-
7,5/10(456)
Качество: DVDRip (источник DVD5)
Формат: AVI
Видео кодек: XviD
Аудио кодек: MP3
Видео: XviD 624x352 16:9 931 Kbps 23.976fps
Аудио: Russian MP3 48kHz 128 kbps stereo

MediaInfo

malky@malky-desktop:~$ mediainfo /media/d/Downloads/Torrent/Divine\ Trash\:\ The\ John\ Waters\ Story\ \[DVDRip.XviD.MP3.RusAVO.by.Malky.AllFilms\].avi
General
Complete name : /media/d/Downloads/Torrent/Divine Trash: The John Waters Story [DVDRip.XviD.MP3.RusAVO.by.Malky.AllFilms.avi
Format : AVI
Format/Info : Audio Video Interleave
File size : 743 MiB
Duration : 1h 36mn
Overall bit rate : 1 072 Kbps
Video
ID : 0
Format : MPEG-4 Visual
Format profile : Advanced Simple@L5
Format settings, BVOP : Yes
Format settings, QPel : No
Format settings, GMC : No warppoints
Format settings, Matrix : Custom
Codec ID : XVID
Codec ID/Hint : XviD
Duration : 1h 36mn
Bit rate : 931 Kbps
Width : 624 pixels
Height : 352 pixels
Display aspect ratio : 16:9
Frame rate : 23.976 fps
Resolution : 8 bits
Colorimetry : 4:2:0
Scan type : Progressive
Bits/(Pixel*Frame) : 0.177
Stream size : 645 MiB (87%)
Writing library : XviD 1.2.1 (UTC 2008-12-04)
Audio
ID : 1
Format : MPEG Audio
Format version : Version 1
Format profile : Layer 3
Format_Settings_Mode : Joint stereo
Format_Settings_ModeExtension : MS Stereo
Codec ID : 55
Codec ID/Hint : MP3
Duration : 1h 36mn
Bit rate mode : Constant
Bit rate : 128 Kbps
Channel(s) : 2 channels
Sampling rate : 48.0 KHz
Stream size : 88.7 MiB (12%)
Alignment : Split accross interleaves
Interleave, duration : 24 ms (0.58 video frame)

Скриншоты



[teatrix.ru].t4772.torrent 
Торрент: Зарегистрирован [ 2015-10-08 00:27 ] · AA77D47A64E4BC1D81F1A4F743A3107C1284C1EF

Скачать .torrent

Скачать

30 KB

Статус: проверено
Скачан: 1 раз
Размер: 743 MB
terms.php



Быстрый ответ

Имя:

      
Для отправки сообщений необходимо включить JavaScript
Показать сообщения:    

Текущее время: 08-Дек 07:07

Часовой пояс: UTC + 3


Вы можете начинать темы
Вы можете отвечать на сообщения
Вы не можете редактировать свои сообщения
Вы не можете удалять свои сообщения
Вы не можете голосовать в опросах
Вы не можете прикреплять файлы к сообщениям
Вы можете скачивать файлы