Прощай ЦП (церебральный паралич) / Goodbye CP // Sayonara CP (Хара Казуо / Hara Kazuo) [1972, Япония, Докуметальное, DVDRip] Русские Английские Sub rus + original lit


Статистика раздачи [Обновить пиров]
Размер:  700 MB   |    Зарегистрирован:  1 год 2 месяца   |    Скачан:  0 раз

Полного источника не было: Никогда

 
   
 
 
 

[Цитировать]

Прощай ЦП (церебральный паралич) / Goodbye CP // Sayonara CP
Страна: Япония
Жанр: Докуметальное
Год выпуска: 1972
Продолжительность: 1:22:55
Перевод: Нет
Cубтитры: русские, английские
Оригинальная аудиодорожка: японский
IMDB: 7.6 http://www.imdb.com/title/tt0234669/
Режиссер: Хара Казуо / Hara Kazuo
Описание: Этот документальный фильм о больных церебральным параличем, о всем том безразличии, которое японское общество оказывает таким людям. Режиссер Хара Казуо решил показать это в своей картине.
Основной акцент в фильме делается на то, что проблема ЦП обходится в Японии стороной , а люди, имеющие физические недостатки, не признаются обычными участниками общества. Съемка выполнена в особой манере, часто звук не синхронизирован с картинкой, что добавляет реализма всему происходящему.
Доп. информация: Перевод субтитров выполнен мною лично, но в довольно быстром темпе, поэтому там могут быть ошибки и огрехи.
Это очень сильное документальное кино.
Качество видео: DVDRip
Формат видео: AVI

MediaInfo

Format : AVI
Format/Info : Audio Video Interleave
File size : 700 MiB
Duration : 1h 22mn
Overall bit rate : 1 180 Kbps
Video
ID : 0
Format : MPEG-4 Visual
Format settings, BVOP : Yes
Format settings, QPel : No
Format settings, GMC : No warppoints
Format settings, Matrix : Default (H.263)
Muxing mode : Packed bitstream
Codec ID : DX50
Codec ID/Hint : DivX 5
Duration : 1h 22mn
Bit rate : 1 043 Kbps
Width : 688 pixels
Height : 544 pixels
Display aspect ratio : 5:4
Frame rate : 23.976 fps
Resolution : 8 bits
Colorimetry : 4:2:0
Scan type : Progressive
Bits/(Pixel*Frame) : 0.116
Stream size : 619 MiB (88%)
Writing library : DivX 6.8.0 (UTC 2007-12-04)
Audio
ID : 1
Format : MPEG Audio
Format version : Version 1
Format profile : Layer 3
Mode : Joint stereo
Format_Settings_ModeExtension : MS Stereo
Codec ID : 55
Codec ID/Hint : MP3
Duration : 1h 22mn
Bit rate mode : Constant
Bit rate : 128 Kbps
Channel(s) : 2 channels
Sampling rate : 48.0 KHz
Stream size : 75.9 MiB (11%)
Alignment : Split accross interleaves
Interleave, duration : 42 ms (1.00 video frame)
Interleave, preload duration : 500 ms
Writing library : LAME3.97

Скриншот c названием фильма

Скриншоты







[teatrix.ru].t4773.torrent 
Торрент: Зарегистрирован [ 2015-10-08 00:27 ] · 68DFC6988B6DCFEA0BD9B60F871F75BE12810690

Скачать .torrent

Скачать

14 KB

Статус: проверено
Скачан: 0 раз
Размер: 700 MB
terms.php



Быстрый ответ

Имя:

      
Для отправки сообщений необходимо включить JavaScript
Показать сообщения:    

Текущее время: 11-Дек 16:50

Часовой пояс: UTC + 3


Вы можете начинать темы
Вы можете отвечать на сообщения
Вы не можете редактировать свои сообщения
Вы не можете удалять свои сообщения
Вы не можете голосовать в опросах
Вы не можете прикреплять файлы к сообщениям
Вы можете скачивать файлы