Режиссер Андрей Тарковский / Directed by Andrej Tarkovskij (Михал Лещиловский / Michal Leszczylowski) [1988, Швеция, Документальный, DVDRip] DVO + Sub eng


Статистика раздачи [Обновить пиров]
Размер:  1.37 GB   |    Зарегистрирован:  1 год 2 месяца   |    Скачан:  1 раз

Полного источника не было: 3 дня

 
   
 
 
 

[Цитировать]

Режиссер Андрей Тарковский / Directed by Andrej Tarkovskij
Страна: Швеция
Жанр: Документальный
Год выпуска: 1988
Продолжительность: 1:37:23
Перевод: Профессиональный (двухголосый)
Cубтитры: английские вшитые
Режиссер: Michal Leszczylowski / Михал Лещиловский
В ролях: Андрей Тарковский, Лейла Александер, Лариса Тарковская, Свен Нюквист, Сьюзан Флитвуд, Эрланд Юсефсон и др.
Описание: Как известно, нет пророка в Отечестве своем, и феномен Андрея Тарковского — яркое тому подтверждение. Более 20 лет назад он ушел от нас, но его творчество все продолжает будоражить умы… Его фильмы показываются телевидением, выпускаются на дисках, о нем пишут, говорят… Одним словом, его помнят.
И документальный фильм «Режиссер Андрей Тарковский», снятый польским кинематографистом Михалом Лещиловским (он работал с Андреем Тарковским над фильмом «Жертвоприношение» в 1985—1986 г), воскрешает к жизни образ этого титана.
Сэмпл: http://multi-up.com/331136
Качество видео: DVDRip
Формат видео: AVI
Видео: XviD, 528 x 400 (33:25), 4/3, 25 fps, 1780 Kbps
Аудио: MP3, 48.0 KHz, 224 Kbps, 2 channels

MediaInfo

General
Complete name : H:\Режиссер Андрей Тарковский.avi
Format : AVI
Format/Info : Audio Video Interleave
File size : 1.37 GiB
Duration : 1h 37mn
Overal bit rate : 2010 Kbps
Writing application : VirtualDubMod 1.5.4.1 (build 2178/release)
Writing library : VirtualDubMod build 2178/release
Video
Format : MPEG-4 Visual
Format profile : Streaming Video@L1
Format settings, BVOP : Yes
Format settings, QPel : No
Format settings, GMC : No warpoints
Format settings, Matrix : Custom
Codec ID : XVID
Codec ID/Hint : XviD
Duration : 1h 37mn
Bit rate : 1780 Kbps
Width : 528 pixels
Height : 400 pixels
Display aspect ratio : 4/3
Frame rate : 25.000 fps
Resolution : 8 bits
Colorimetry : 4:2:0
Scan type : Progressive
Bits/(Pixel*Frame) : 0.337
Stream size : 1.21 GiB
Writing library : XviD 1.2.0.dev47 (UTC 2006-11-01)
Audio
Format : AC-3
Format/Info : Audio Coding 3
Codec ID : 2000
Duration : 1h 37mn
Bit rate mode : Constant
Bit rate : 224 Kbps
Channel(s) : 2 channels
Channel positions : L R
Sampling rate : 48.0 KHz
Stream size : 156 MiB

Скриншот c названием фильма

Скриншоты








[teatrix.ru].t4777.torrent 
Торрент: Зарегистрирован [ 2015-10-08 00:27 ] · EA0C0EAB0BADD52B1AF4F01E9DB82C6A0E4786E2

Скачать .torrent

Скачать

14 KB

Статус: проверено
Скачан: 1 раз
Размер: 1.37 GB
terms.php



Быстрый ответ

Имя:

      
Для отправки сообщений необходимо включить JavaScript
Показать сообщения:    

Текущее время: 08-Дек 17:24

Часовой пояс: UTC + 3


Вы можете начинать темы
Вы можете отвечать на сообщения
Вы не можете редактировать свои сообщения
Вы не можете удалять свои сообщения
Вы не можете голосовать в опросах
Вы не можете прикреплять файлы к сообщениям
Вы можете скачивать файлы