Ян Саудек. В плену страстей, без надежды на спасение / Jan Saudek - V pekle svych vasni, raj v nedohlednu (Адольф Зика / Adolf Zika) [2007, Чехия / Czech Republic, документальный, DVDRip] original + Sub (rus, eng, cze, pt-br)


Статистика раздачи [Обновить пиров]
Размер:  700 MB   |    Зарегистрирован:  1 год 2 месяца   |    Скачан:  1 раз

Полного источника не было: 3 месяца 11 дней

 
   
 
 
 

[Цитировать]

Ян Саудек. В плену страстей, без надежды на спасение
Jan Saudek - V pekle svych vasni, raj v nedohlednu- Страна: Чехия / Czech Republic
Жанр: документальный
Год выпуска: 2007
Продолжительность: 01:35:49
Перевод: Субтитры в переводе huronnn
Cубтитры: русские, английские, чешские, португало-бразильские
Оригинальная аудиодорожка: чешский
Режиссер: Adolf Zika / Адольф Зика
В ролях: Ян Саудек, его семья и коллеги
Описание: Ян Саудек - захвачен страстями, никакой надежды на спасение. Фильм чешско-американского совместного производства. Через год, фильм получил Glass Eye Award в номинации лучший документальный фильм на кинофестивале ЕвроФест в Монреале, Канада. Другие достижения: Выбор - Сеульского Международного кинофестиваля (Южная Корея), Краковского кинофестиваля (Польша), Род-Айлендского Международного кинофестиваля (США), Европейского кинофестиваля в Лондоне (Великобритания), участвовал в конкурсной программе: кинофестиваля Moving Image в Торонто (Канада).
Ян Саудек - это один из самых известных фотографов в Чешской Республике, деятельность которого мгновенно узнаваема благодаря использованию характерной окраски и шрамированных фонов, его творения иногда носят интимный характер, иногда провокационны, ню. Не так давно, Адольф Зика - фэшн и арт фотограф мирового класса завершил фильм о мистере Саудеке, который назван "Ян Саудек - захвачен страстями, никакой надежды на спасение", фильм представляет собой попытку поближе рассмотреть личность за очень публичным человеком: он - "Дон Жуан" и "плохой мальчик", даже в возрасте 72 лет. Саудек, как четко указывает Адольф Зика, человек, чьи жизнь и творчество были определены страстью, к лучшему или к худшему. (амазон)
От себя: как оказалось, Саудек - не только замечательный фото-художник, но человек, заряженный оптимизмом и отличным чувством юмора
Доп. информация: http://www.imdb.com/title/tt1306983/
http://saudekfilm.com/
TU, olavocpa!
Качество видео: DVDRip
Формат видео: AVI
Видео: Xvid 608x352 25.00fps 883 Kbps [Stream 00]
Аудио: MPEG Audio Layer 3 48000Hz stereo 125kbps [Stream 01]
Формат субтитров: softsub (SRT)

MediaInfo

Format : AVI
Format/Info : Audio Video Interleave
File size : 700 MiB
Duration : 1h 35mn
Overall bit rate : 1 021 Kbps
Writing application : VirtualDubMod 1.5.4.1 (build 2178/release)
Writing library : VirtualDubMod build 2178/release
Video
ID : 0
Format : MPEG-4 Visual
Format profile : Advanced Simple@L5
Format settings, BVOP : Yes
Format settings, QPel : No
Format settings, GMC : No warppoints
Format settings, Matrix : Custom
Codec ID : XVID
Codec ID/Hint : XviD
Duration : 1h 35mn
Bit rate : 883 Kbps
Width : 608 pixels
Height : 352 pixels
Display aspect ratio : 16:9
Frame rate : 25.000 fps
Resolution : 8 bits
Colorimetry : 4:2:0
Scan type : Progressive
Bits/(Pixel*Frame) : 0.165
Stream size : 605 MiB (86%)
Writing library : XviD 1.2.0.dev47 (UTC 2006-11-01)
Audio
ID : 1
Format : MPEG Audio
Format version : Version 1
Format profile : Layer 3
Format_Settings_Mode : Joint stereo
Format_Settings_ModeExtension : MS Stereo
Codec ID : 55
Codec ID/Hint : MP3
Duration : 1h 35mn
Bit rate mode : Variable
Bit rate : 126 Kbps
Nominal bit rate : 144 Kbps
Channel(s) : 2 channels
Sampling rate : 48.0 KHz
Stream size : 86.1 MiB (12%)
Alignment : Aligned on interleaves
Interleave, duration : 24 ms (0.60 video frame)
Interleave, preload duration : 146 ms
Writing library : LAME3.97
Encoding settings : -m j -V 4 -q 2 -lowpass 17.5 --abr 144
Language : Czech (Ceske)

Скриншот c названием фильма

Скриншоты

[teatrix.ru].t4789.torrent 
Торрент: Зарегистрирован [ 2015-10-08 00:27 ] · F7DCB989884D7A3DD51E5D0BD67563A41E2569E1

Скачать .torrent

Скачать

14 KB

Статус: проверено
Скачан: 1 раз
Размер: 700 MB
terms.php



Быстрый ответ

Имя:

      
Для отправки сообщений необходимо включить JavaScript
Показать сообщения:    

Текущее время: 10-Дек 04:13

Часовой пояс: UTC + 3


Вы можете начинать темы
Вы можете отвечать на сообщения
Вы не можете редактировать свои сообщения
Вы не можете удалять свои сообщения
Вы не можете голосовать в опросах
Вы не можете прикреплять файлы к сообщениям
Вы можете скачивать файлы