В теме / In the Theme (Ольга Попова) [2007 г., документальный, DVDRip-AVC]


Статистика раздачи [Обновить пиров]
Размер:  108 MB   |    Зарегистрирован:  1 год 1 месяц   |    Скачан:  0 раз

Полного источника не было: Никогда

 
   
 
 
 

[Цитировать]

В теме / In the Theme- Год выпуска: 2007
Страна: РФ
Жанр: документальный, LGBT
Продолжительность: 14:01
Перевод: Не требуется
Русские субтитры: нет
Режиссер: Ольга Попова-Описание: Молодая пара празднует годовщину знакомства. За бутылкой шампанского героини фильма рассказывают как прошло это время для них, и какого это - быть "в теме".-Российская короткометражка "В теме" Ольги Поповой на Берлинском кинофестивале-2008 получила премию Академического союза по содействию международному обмену в области образования и культуры DAAD. "Мы считаем, что этот фильм достиг поразительной близости со своими исполнительницам, ни разу при этом не нарушив тайну этой интимности. Мы хотели бы своей премией поощрить талант режиссера", - сказал представитель международного жюри короткометражных фильмов.
link-Качество: DVDRip-AVC
Формат: MP4
Видео кодек: H.264
Аудио кодек: AAC
Видео: 656:336 25.000 fps 0.180 bits/(pixel*frame)
Аудио: 2 channels 44.1 KHz

Доп. информация:

Format : MPEG-4
Format profile : Base Media / Version 1
Codec ID : mp41
File size : 108 MiB
Duration : 14mn 1s
Overall bit rate : 1 077 Kbps
Encoded date : UTC 2010-06-19 07:57:53
Tagged date : UTC 2010-06-19 07:57:53
Video
ID : 3
Format : MPEG-4 Visual
Format profile : Advanced Simple@L5
Format settings, BVOP : Yes
Format settings, QPel : No
Format settings, GMC : No warppoints
Format settings, Matrix : Default (H.263)
Codec ID : 20
Duration : 14mn 1s
Bit rate mode : Variable
Bit rate : 990 Kbps
Maximum bit rate : 2 682 Kbps
Width : 656 pixels
Height : 336 pixels
Display aspect ratio : 1.952
Frame rate mode : Constant
Frame rate : 25.000 fps
Resolution : 8 bits
Colorimetry : 4:2:0
Scan type : Progressive
Bits/(Pixel*Frame) : 0.180
Stream size : 99.4 MiB (92%)
Writing library : em4v 4.1.6.5
Language : English
Encoded date : UTC 2010-06-19 07:57:53
Tagged date : UTC 2010-06-19 07:57:53
Audio
ID : 4
Format : AAC
Format/Info : Advanced Audio Codec
Format version : Version 4
Format profile : LC
Format settings, SBR : No
Codec ID : 40
Duration : 14mn 1s
Bit rate mode : Variable
Bit rate : 79.8 Kbps
Maximum bit rate : 239 Kbps
Channel(s) : 2 channels
Channel positions : L R
Sampling rate : 44.1 KHz
Stream size : 8.01 MiB (7%)

Скриншоты

[teatrix.ru].t4799.torrent 
Торрент: Зарегистрирован [ 2015-10-08 00:27 ] · 38C0618997327741AF576448AFD09137F6D73EB2

Скачать .torrent

Скачать

17 KB

Статус: проверено
Скачан: 0 раз
Размер: 108 MB
terms.php



Быстрый ответ

Имя:

      
Для отправки сообщений необходимо включить JavaScript
Показать сообщения:    

Текущее время: 05-Дек 17:33

Часовой пояс: UTC + 3


Вы можете начинать темы
Вы можете отвечать на сообщения
Вы не можете редактировать свои сообщения
Вы не можете удалять свои сообщения
Вы не можете голосовать в опросах
Вы не можете прикреплять файлы к сообщениям
Вы можете скачивать файлы