Разбойник Юрко / Zbojník Jurko (Виктор Кубал / Vicktor Kubal) [1976 г., Чехословакия, Легенда, WEBRip] sub (rus)


 

[Цитировать]

Разбойник Юрко / Zbojník Jurko Год выпуска: 1976.
Страна: Чехословакия .
Жанр: Легенда.
Продолжительность: 01:15:45.
Перевод: Cубтитры.
Cубтитры: Русские, hardsub.
Оригинальная аудио дорожка: Cловацкая.
Режиссер: Виктор Кубал / Vicktor Kubal.
Описание:
Первый словацкий полнометражный анимационный фильм о новых приключениях разбойника Юрая Яношика, героя, который ненавидел несправедливость и боролся против социального гнета. Фильм с одной стороны выглядит как сказка, а с другой стороны близок к реальности.
Интерпретация В.Кубалом жизни Юрая Яношика несет в себе элементы сказок: фея, волшебный пояс, большая сила Юрка, почерпнутые из народных легенд.
Фильм скорее юмористический, чем драматический или романтический. А пафос вступления постепенно переходит в комизм и гэг (комедийный приём, в основе которого лежит очевидная нелепость, выраженный визуальными средствами.)
Пародия и ирония в некоторых моментах настолько сильна, что вынуждает зрителя размышлять над некоторыми серьезными вопросами.
Юмор В.Кубала основан на карикатуре. И главный герой Юрко тоже карикатурен, но не в комическом смысле, а в героическом: образ высокого, статного юноши, от которого исxодит сила, уверенность и ловкость.
Благодаря манере изображения В.Кубала, ничего лишнего не отвлекает внимание зрителя, напротив помогает сосредоточиться на действии. Даже можно просмотреть весь фильм, не поняв, что он немой!

Дополнительная информация:
Студия: Slovenská filmová tvorba, Štúdio krátkych filmov Bratislava.
Автор сценария: Виктор Кубал / Vicktor Kubal.
Художник: Виктор Кубал / Vicktor Kubal.
Композитор: Юрай Лехманн / Juraj Lexmann.
Исполнительница песен: Дарина Лешчиакова / Darina Laščiakova
Оператор: Йозеф Ружичка / Jozef Ružička.
Награды и номинации:
• Виктор Кубал начал работу над "Разбойником Юрко" в апреле 1974 года. Работа была завершена в конце 1976 г.
• Для фильма было нарисовано 45000 рисунков + 600 для фона.
• Рисунки для фона В.Кубал рисовал с натуры в Терхове ( родины Юрая Яношика).

Несколько слов о великом Мастере Викторе Кубале

Основатель словацкого анимационного фильма, режиссер, карикатурист, художник, писатель, сценарист и режиссер Виктор Кубал (20.03.1923 – 24. 04.1997) был истинным юмористом. Также, как нуждался в воздухе для дыхания, он нуждался в шутках и иронии. Свои первые попытки рисовал чернилом на пленку фильма уже в 12-ть лет ( "Танк едет через заборы", "Подъем самолета"), позже посещал один год дневнoй курс кинетической фотографии и кинематографии в Школе искусственных ремесел в Братиславе.
Как режиссер и мультипликатор снял 430 короткометражных анимационных фильмов ("Пуф и Муф", "Янко Горошек", "Чучело на перекрестке", "Дита" и др.), три полнометражных анимационных фильма ("Разбойник Юрко", "Кровавая пани", "Сказка из марципана"). Примечательно, что он был не только автором идеи картин, но и автором сценария, директором, режессером, а иногда и оператором, и монтажером.
В.Кубал внес большой вклад в создании и деятельность сатирического журнала "Rohac", где долгие годы был ведущем художником.
Виктор Кубал нарисовал в общей сложности 300000 карикатур. "Больше всего мне хотелось нарисовать такую карикатуру, на которой бы не было ничего, а читатель наперекор этому понимал ее содержание. К сожалению, у меня не получилось" (В.Кубал)
В.Кубал стоял в истоках фестиваля "Кремницкие гэги", a в 1981г. стал первым ректором мнимого Университета юмора и сатиры.
Этот Мастер с большим сердцем и талантом был также автором книг для детей и юношества - "Vylet Toma Philbyho", "Otcovia a deti alebo Ja a moj brat"
Релиз
Рип Veverichka.
Большое спасибо
leburs за помощь в подготовке раздачи!

Кровавая пани (ещё один фильм Виктора Кубала)
Качество видео: WEBRip
Формат: AVI
Видео: 640x480 (1.33:1), 25 fps, XviD MPEG-4 ~1948 kbps avg, 0.25 bit/pixel
Аудио: 44.100 kHz, MPEG Layer 3, 2 ch, ~128.00 kbps avg

Отчет MediaInfo

General
Complete name : Razbojnik.Yurko.1976.XviD.WEBDRip.fenixclub.avi
Format : AVI
Format/Info : Audio Video Interleave
File size : 1.10 GiB
Duration : 1h 15mn
Overall bit rate : 2 082 Kbps
Writing library : TMPGEnc 4.0 XPress Version. 4.7.7.307
Video
ID : 0
Format : MPEG-4 Visual
Format profile : Simple@L3
Format settings, BVOP : No
Format settings, QPel : No
Format settings, GMC : No warppoints
Format settings, Matrix : Default (H.263)
Codec ID : XVID
Codec ID/Hint : XviD
Duration : 1h 15mn
Bit rate : 1 947 Kbps
Width : 640 pixels
Height : 480 pixels
Display aspect ratio : 4:3
Frame rate : 25.000 fps
Color space : YUV
Chroma subsampling : 4:2:0
Bit depth : 8 bits
Scan type : Progressive
Compression mode : Lossy
Bits/(Pixel*Frame) : 0.253
Stream size : 1.03 GiB (94%)
Writing library : XviD 73
Audio
ID : 1
Format : MPEG Audio
Format version : Version 1
Format profile : Layer 3
Mode : Joint stereo
Mode extension : MS Stereo
Codec ID : 55
Codec ID/Hint : MP3
Duration : 1h 15mn
Bit rate mode : Constant
Bit rate : 128 Kbps
Channel(s) : 2 channels
Sampling rate : 44.1 KHz
Compression mode : Lossy
Stream size : 69.2 MiB (6%)
Alignment : Aligned on interleaves
Interleave, duration : 250 ms (6.25 video frames)
Interleave, preload duratio : 182 ms

Скриншоты

Альтернативный хост




Показать сообщения:    

Текущее время: 11-Дек 11:07

Часовой пояс: UTC + 3


Вы не можете начинать темы
Вы не можете отвечать на сообщения
Вы не можете редактировать свои сообщения
Вы не можете удалять свои сообщения
Вы не можете голосовать в опросах
Вы не можете прикреплять файлы к сообщениям
Вы не можете скачивать файлы