Как крылья крепятся к спинам ангелов / How wings are attached to the backs of angels (Крэйг Уэлч / Craig Welch) [1996, Канада, авторская анимация, WEBRip]


 

[Цитировать]

Как крылья крепятся к спинам ангелов / How wings are attached to the backs of angels
Страна: Канада
Жанр: авторская анимация
Год выпуска: 1996
Продолжительность: 00:11:09
Перевод: не требуется
Cубтитры: нет
Режиссёр: Крэйг Уэлч / Craig Welch
Описание: Главный герой этого сюрреалистического фильма – человек, одержимый контролем. Наполняющие его дом необычные механизмы управляют окружающим пространством и защищают его, пока он пытается научно препарировать и изменять реальность. Даже живущую с ним женщину он воспринимает без эмоций. Насколько оправдана его одержимость?
Качество видео: WEBRip
Формат видео: AVI
Видео: 2208 kbps, 720х528 (4:3), 24.000 fps, MPEG-4 Visual (XviD)
Аудио: 192 kbps, 44.1 kHz, 2 channels, MPEG Audio (MP3)

MediaInfo

General
Complete name : How wings are attached to back of angels (1996).avi
Format : AVI
Format/Info : Audio Video Interleave
File size : 192 MiB
Duration : 11mn 9s
Overall bit rate : 2 409 Kbps
Writing library : VirtualDub build 35491/release
Video
ID : 0
Format : MPEG-4 Visual
Format profile : Advanced Simple@L5
Format settings, BVOP : 2
Format settings, QPel : No
Format settings, GMC : No warppoints
Format settings, Matrix : Default (H.263)
Codec ID : XVID
Codec ID/Hint : XviD
Duration : 11mn 9s
Bit rate : 2 208 Kbps
Width : 720 pixels
Height : 528 pixels
Display aspect ratio : 4:3
Frame rate : 24.000 fps
Color space : YUV
Chroma subsampling : 4:2:0
Bit depth : 8 bits
Scan type : Progressive
Compression mode : Lossy
Bits/(Pixel*Frame) : 0.242
Stream size : 176 MiB (92%)
Writing library : XviD 64
Audio
ID : 1
Format : MPEG Audio
Format version : Version 1
Format profile : Layer 3
Mode : Joint stereo
Codec ID : 55
Codec ID/Hint : MP3
Duration : 11mn 9s
Bit rate mode : Constant
Bit rate : 192 Kbps
Channel(s) : 2 channels
Sampling rate : 44.1 KHz
Compression mode : Lossy
Stream size : 15.3 MiB (8%)
Alignment : Split accross interleaves
Interleave, duration : 42 ms (1.00 video frame)
Interleave, preload duration : 500 ms

Скриншот c названием фильма

Скриншоты




Показать сообщения:    

Текущее время: 03-Дек 18:43

Часовой пояс: UTC + 3


Вы не можете начинать темы
Вы не можете отвечать на сообщения
Вы не можете редактировать свои сообщения
Вы не можете удалять свои сообщения
Вы не можете голосовать в опросах
Вы не можете прикреплять файлы к сообщениям
Вы не можете скачивать файлы