Мэри и Макс / Mary and Max (Адам Бенжамин Эллиот / Adam Elliot) [2009 г., Австралия, мультфильм, драма, комедия, BDRip 1080p] MVO (R5) + Original (Eng) + Commentary + Sub (Rus, Eng)


 

[Цитировать]

Мэри и Макс / Mary and MaxГод выпуска: 2009
Страна: Австралия
Жанр: мультфильм, драма, комедия
Продолжительность: 01:32:16
Перевод: профессиональный, многоголосый закадровый
Cубтитры: русские, английские
Режиссер: Адам Бенжамин Эллиот / Adam Elliot
В ролях: Тони Коллетт, Филип Сеймур Хоффман, Эрик Бана, Бэрри Хамфриз, Бетани Витмор, Рени Гейер, Йен «Молли» Мелдрам, Джон Флаус, Джули Форсайт, Майкл Иенна
Описание: История отношений 8-летней девочки Мэри Динкль, которая скучает в пригороде далекого австралийского Мельбурна, и Макса Хоровица, 44-летнего одинокого еврея, жителя шумного нью-йоркского хаоса. Разделенные разницей в возрасте и двумя континентами, Мэри и Макс проносят свою необычную дружбу через годы.-Доп. информация:
IMDb: 8.2/10, Top 250: #163
Kinopoisk: 8.068/10
Sample

Интересные факты о фильме

  • Фильм основан на реальных событиях.
Внимание! Дальнейший список фактов о мультфильме содержит спойлеры. Будьте осторожны.
  • Рядом с надгробной плитой на могиле соседки Макса Айви находится надгробие с высеченным на нём именем режиссёра Адама Бенжамина Эллиота.

Награды и номинации

Берлинский кинофестиваль, 2009 год
Победитель (1):
* Хрустальный медведь - особое упоминание - лучший художественный фильм конкурса для юношества Поколение 14+
Качество: BDRip 1080p
Формат: MKV
Видео: H.264, 1920x1044 (1.84:1), 6754 kbps, 23,976 fps
Аудио №1: Russian, DTS, 6ch, 48 kHz, 1509 kbps (Многоголосый)
Аудио №2: English, DTS, 6ch, 48 kHz, 1509 kbps (Оригинал)
Аудио №3: English, AC3, 2ch, 48 kHz, 192 kbps (Комментарии режиссера и сценариста Адама Бенжамина Эллиота)
Субтитры №1: Russian, SRT
Субтитры №2: English, SRT-

Mediainfo

Format : Matroska
Format version : Version 4 / Version 2
File size : 6.43 GiB
Duration : 1h 32mn
Overall bit rate : 9 970 Kbps
Encoded date : UTC 2015-08-15 22:13:16
Writing application : mkvmerge v8.3.0 ('Over the Horizon') 64bit
Writing library : libebml v1.3.1 + libmatroska v1.4.2
DURATION : 01:25:46.688000000
NUMBER_OF_FRAMES : 849
NUMBER_OF_BYTES : 35361
_STATISTICS_WRITING_APP : mkvmerge v8.3.0 ('Over the Horizon') 64bit
_STATISTICS_WRITING_DATE_UTC : 2015-08-15 22:13:16
_STATISTICS_TAGS : BPS DURATION NUMBER_OF_FRAMES NUMBER_OF_BYTES
Attachment : Yes
Video
ID : 1
Format : AVC
Format/Info : Advanced Video Codec
Format profile : High@L4.1
Format settings, CABAC : Yes
Format settings, ReFrames : 4 frames
Codec ID : V_MPEG4/ISO/AVC
Duration : 1h 32mn
Bit rate : 6 560 Kbps
Width : 1 920 pixels
Height : 1 044 pixels
Display aspect ratio : 1.85:1
Frame rate mode : Constant
Frame rate : 23.976 fps
Color space : YUV
Chroma subsampling : 4:2:0
Bit depth : 8 bits
Scan type : Progressive
Bits/(Pixel*Frame) : 0.136
Stream size : 4.23 GiB (66%)
Writing library : x264 core 148 r2579kMod 73ae2d1
Encoding settings : cabac=1 / ref=4 / deblock=1:-3:-1 / analyse=0x3:0x133 / me=umh / subme=11 / psy=1 / fade_compensate=0.00 / psy_rd=0.80:0.00 / mixed_ref=1 / me_range=32 / chroma_me=1 / trellis=2 / 8x8dct=1 / cqm=0 / deadzone=21,11 / fast_pskip=0 / chroma_qp_offset=-2 / threads=6 / lookahead_threads=1 / sliced_threads=0 / nr=0 / decimate=1 / interlaced=0 / bluray_compat=0 / constrained_intra=0 / fgo=0 / bframes=16 / b_pyramid=2 / b_adapt=2 / b_bias=0 / direct=1 / weightb=1 / open_gop=0 / weightp=2 / keyint=250 / keyint_min=23 / scenecut=40 / intra_refresh=0 / rc_lookahead=40 / rc=crf / mbtree=0 / crf=17.0000 / qcomp=0.65 / qpmin=0 / qpmax=69 / qpstep=4 / vbv_maxrate=62500 / vbv_bufsize=78125 / crf_max=0.0 / nal_hrd=none / filler=0 / ip_ratio=1.40 / pb_ratio=1.30 / aq=3:0.80
Language : English
Default : Yes
Forced : No
DURATION : 01:32:15.947000000
NUMBER_OF_FRAMES : 132730
NUMBER_OF_BYTES : 4673916040
_STATISTICS_WRITING_APP : mkvmerge v8.3.0 ('Over the Horizon') 64bit
_STATISTICS_WRITING_DATE_UTC : 2015-08-15 22:13:16
_STATISTICS_TAGS : BPS DURATION NUMBER_OF_FRAMES NUMBER_OF_BYTES
Matrix coefficients : BT.709
Audio #1
ID : 2
Format : DTS
Format/Info : Digital Theater Systems
Mode : 16
Format settings, Endianness : Big
Codec ID : A_DTS
Duration : 1h 32mn
Bit rate mode : Constant
Bit rate : 1 510 Kbps
Channel(s) : 6 channels
Channel positions : Front: L C R, Side: L R, LFE
Sampling rate : 48.0 KHz
Bit depth : 24 bits
Compression mode : Lossy
Stream size : 996 MiB (15%)
Title : MVO, R5
Language : Russian
Default : Yes
Forced : No
Audio #2
ID : 3
Format : DTS
Format/Info : Digital Theater Systems
Mode : 16
Format settings, Endianness : Big
Codec ID : A_DTS
Duration : 1h 32mn
Bit rate mode : Constant
Bit rate : 1 510 Kbps
Channel(s) : 6 channels
Channel positions : Front: L C R, Side: L R, LFE
Sampling rate : 48.0 KHz
Bit depth : 24 bits
Compression mode : Lossy
Stream size : 996 MiB (15%)
Title : Original
Language : English
Default : No
Forced : No
Audio #3
ID : 4
Format : AC-3
Format/Info : Audio Coding 3
Mode extension : CM (complete main)
Format settings, Endianness : Big
Codec ID : A_AC3
Duration : 1h 32mn
Bit rate mode : Constant
Bit rate : 192 Kbps
Channel(s) : 3 channels
Channel positions : Front: L R, LFE
Sampling rate : 48.0 KHz
Bit depth : 16 bits
Compression mode : Lossy
Stream size : 127 MiB (2%)
Title : Commentary, writer/director Adam Elliot
Language : English
Default : No
Forced : No
Text #1
ID : 5
Format : UTF-8
Codec ID : S_TEXT/UTF8
Codec ID/Info : UTF-8 Plain Text
Language : Russian
Default : No
Forced : No
Text #2
ID : 6
Format : UTF-8
Codec ID : S_TEXT/UTF8
Codec ID/Info : UTF-8 Plain Text
Language : English
Default : No
Forced : No
Menu
00:00:00.000 : en:Welcome to Mount Waverley
00:02:32.027 : en:The Family Dinkle
00:08:31.928 : en:Welcome to New York
00:13:58.546 : en:A Little About Me
00:19:19.575 : en:Max's Jobs
00:25:52.217 : en:Rubbish
00:31:40.148 : en:Honesty
00:38:03.656 : en:What Is Love?
00:44:34.088 : en:Numbers Up
00:49:47.610 : en:Aspies
00:55:57.104 : en:Even Better Friends
01:01:15.755 : en:Confidence
01:07:33.758 : en:List of Emotions
01:12:31.138 : en:Out of Ink
01:18:38.589 : en:Our Warts
01:24:57.467 : en:Together At Last
01:29:06.466 : en:End Credits

x264 log

x264 [info]: frame I:1099 Avg QP:13.65 size:265116
x264 [info]: frame P:26320 Avg QP:14.94 size: 79862
x264 [info]: frame B:105311 Avg QP:17.26 size: 21656
x264 [info]: consecutive B-frames: 2.3% 1.6% 6.1% 8.4% 9.7% 62.2% 3.7% 1.2% 2.2% 0.3% 0.4% 1.2% 0.1% 0.2% 0.2% 0.1% 0.2%
x264 [info]: mb I I16..4: 17.9% 57.1% 24.9%
x264 [info]: mb P I16..4: 1.2% 7.1% 1.9% P16..4: 31.2% 31.5% 13.0% 3.4% 0.3% skip:10.3%
x264 [info]: mb B I16..4: 0.2% 0.8% 0.3% B16..8: 33.5% 17.1% 2.4% direct: 4.0% skip:41.6% L0:41.5% L1:45.5% BI:12.9%
x264 [info]: 8x8 transform intra:65.0% inter:39.7%
x264 [info]: coded y,uvDC,uvAC intra: 82.4% 52.4% 29.6% inter: 18.1% 8.1% 0.8%
x264 [info]: i16 v,h,dc,p: 28% 10% 23% 39%
x264 [info]: i8 v,h,dc,ddl,ddr,vr,hd,vl,hu: 12% 11% 15% 8% 10% 10% 11% 10% 12%
x264 [info]: i4 v,h,dc,ddl,ddr,vr,hd,vl,hu: 25% 8% 23% 5% 9% 7% 8% 6% 8%
x264 [info]: i8c dc,h,v,p: 24% 49% 18% 9%
x264 [info]: Weighted P-Frames: Y:4.4% UV:1.7%
x264 [info]: ref P L0: 57.2% 8.9% 23.4% 9.5% 1.0% 0.0%
x264 [info]: ref B L0: 85.8% 11.5% 2.7%
x264 [info]: ref B L1: 92.4% 7.6%
x264 [info]: kb/s:6754.28
x264 [info]: encoded 132730 frames, 2.99 fps, 6754.28 kb/s, duration 12:21:05.34

-

Скриншоты





Показать сообщения:    

Текущее время: 04-Дек 02:56

Часовой пояс: UTC + 3


Вы не можете начинать темы
Вы не можете отвечать на сообщения
Вы не можете редактировать свои сообщения
Вы не можете удалять свои сообщения
Вы не можете голосовать в опросах
Вы не можете прикреплять файлы к сообщениям
Вы не можете скачивать файлы