Здесь и Великое Нездесь / Here and the Great Elsewhere (Мишель Лемье / Michèle Lemieux) [2012, Канада, авторская анимация, WEBRip]


 

[Цитировать]

Здесь и Великое Нездесь / Here and the Great Elsewhere
Страна: Канада
Жанр: авторская анимация
Год выпуска: 2012
Продолжительность: 00:14:26
Перевод: не требуется
Cубтитры: нет
Режиссер: Мишель Лемье / Michèle Lemieux
Описание: Абстрактный фильм, выполненный в технологии анимации игольчатого экрана, имеет подзаголовок "Четыре медитации с пространством и временем".
Сюжеты (с названиями "Целое и его части", "Портреты предков", "Маленькое здесь и сейчас" и "Возвращение небытия") исследуют мысли персонажа, чьи размышления являются вечным поиском смысла жизни.
Доп. информация: Лучший короткометражный фильм - Фестиваль "Animage" (Бразилия)
Приз "Бронзовый пегас" - Фестиваль "Animator" (Польша)
Качество видео: WEBRip
Формат видео: AVI
Видео: 1911 kbps, 688х528 (4:3), 24.000 fps, MPEG-4 Visual (XviD)
Аудио: 192 kbps, 44.1 kHz, 2 channels, MPEG Audio (MP3)

MediaInfo

General
Complete name : Here and the Great Elsewhere (2012).avi
Format : AVI
Format/Info : Audio Video Interleave
File size : 218 MiB
Duration : 14mn 26s
Overall bit rate : 2 112 Kbps
Writing library : VirtualDub build 35491/release
Video
ID : 0
Format : MPEG-4 Visual
Format profile : Advanced Simple@L5
Format settings, BVOP : 2
Format settings, QPel : No
Format settings, GMC : No warppoints
Format settings, Matrix : Default (H.263)
Codec ID : XVID
Codec ID/Hint : XviD
Duration : 14mn 26s
Bit rate : 1 911 Kbps
Width : 688 pixels
Height : 528 pixels
Display aspect ratio : 4:3
Frame rate : 24.000 fps
Color space : YUV
Chroma subsampling : 4:2:0
Bit depth : 8 bits
Scan type : Progressive
Compression mode : Lossy
Bits/(Pixel*Frame) : 0.219
Stream size : 198 MiB (90%)
Writing library : XviD 64
Audio
ID : 1
Format : MPEG Audio
Format version : Version 1
Format profile : Layer 3
Mode : Joint stereo
Codec ID : 55
Codec ID/Hint : MP3
Duration : 14mn 26s
Bit rate mode : Constant
Bit rate : 192 Kbps
Channel(s) : 2 channels
Sampling rate : 44.1 KHz
Compression mode : Lossy
Stream size : 19.8 MiB (9%)
Alignment : Split accross interleaves
Interleave, duration : 42 ms (1.00 video frame)
Interleave, preload duration : 500 ms

Скриншот c названием фильма

Скриншоты




Показать сообщения:    

Текущее время: 09-Дек 22:20

Часовой пояс: UTC + 3


Вы не можете начинать темы
Вы не можете отвечать на сообщения
Вы не можете редактировать свои сообщения
Вы не можете удалять свои сообщения
Вы не можете голосовать в опросах
Вы не можете прикреплять файлы к сообщениям
Вы не можете скачивать файлы