Измена / Cheatin' (Билл Плимптон / Bill Plympton) [2013, США, анимация, комедия, сарказм, DVDRip-AVC] Sub Fre + Original Eng


 

[Цитировать]

Измена / Cheatin'
Страна: США
Жанр: Комедия, сарказм
Год выпуска: 2013
Продолжительность: 01:16:28
Перевод: Субтитры
Cубтитры: французские
Оригинальная аудиодорожка: английский
Режиссер: Билл Плимптон / Bill Plympton
В ролях: София Такал / Sophia Takal, Джереми Бауманн / Jeremy Baumann
Описание: Полнометражная работа американского гуру независимой анимации. Мультфильм повествует о любви с первого взгляда, измене, ревности и… магии. Настоящая феерия сарказма, нестандартных перипетий сюжета и колористических решений. В общем, все что нужно, чтобы погрузиться в атмосферу мульт-авангарда.
Сэмпл: http://sendfile.su/1142509
Качество видео: DVDRip
Формат видео: MKV
Видео: 943 Kbps, 720x480@853x480, 23.976 fps, AVC (NTSC) (High@L3.1) (CABAC/9 Ref Frames)
Аудио: 448 Kbps, 48.0 KHz, 16 bits, 6 channel, AC-3
Формат субтитров: prerendered (IDX+SUB)

MediaInfo

General
Unique ID : 216379405189860157154461079161589515965 (0xA2C9285730284CE288F70B9F9628C6BD)
Complete name : C:\Users\Владелец\Desktop\Cheatin' (2014).mkv
Format : Matroska
Format version : Version 4 / Version 2
File size : 776 MiB
Duration : 1h 16mn
Overall bit rate : 1 420 Kbps
Encoded date : UTC 2015-07-19 21:35:58
Writing application : mkvmerge v7.3.0 ('Nouages') 64bit built on Oct 22 2014 18:53:34
Writing library : libebml v1.3.0 + libmatroska v1.4.1
DURATION : 01:02:40.119000000
NUMBER_OF_FRAMES : 23
NUMBER_OF_BYTES : 37361
_STATISTICS_WRITING_APP : mkvmerge v7.3.0 ('Nouages') 64bit built on Oct 22 2014 18:53:34
_STATISTICS_WRITING_DATE_UTC : 2015-07-19 21:35:58
_STATISTICS_TAGS : BPS DURATION NUMBER_OF_FRAMES NUMBER_OF_BYTES
Video
ID : 1
Format : AVC
Format/Info : Advanced Video Codec
Format profile : High@L3.1
Format settings, CABAC : Yes
Format settings, ReFrames : 9 frames
Codec ID : V_MPEG4/ISO/AVC
Duration : 1h 16mn
Bit rate : 943 Kbps
Width : 720 pixels
Height : 480 pixels
Display aspect ratio : 16:9
Frame rate mode : Constant
Frame rate : 23.976 fps
Standard : NTSC
Color space : YUV
Chroma subsampling : 4:2:0
Bit depth : 8 bits
Scan type : Progressive
Bits/(Pixel*Frame) : 0.114
Stream size : 516 MiB (66%)
Writing library : x264 core 130 r2273 b3065e6
Encoding settings : cabac=1 / ref=9 / deblock=1:-2:-2 / analyse=0x3:0x133 / me=umh / subme=9 / psy=1 / psy_rd=1.00:0.00 / mixed_ref=1 / me_range=24 / chroma_me=1 / trellis=2 / 8x8dct=1 / cqm=0 / deadzone=21,11 / fast_pskip=0 / chroma_qp_offset=-2 / threads=3 / lookahead_threads=1 / sliced_threads=0 / nr=0 / decimate=1 / interlaced=0 / bluray_compat=0 / constrained_intra=0 / bframes=6 / b_pyramid=2 / b_adapt=2 / b_bias=0 / direct=3 / weightb=1 / open_gop=0 / weightp=2 / keyint=240 / keyint_min=24 / scenecut=40 / intra_refresh=0 / rc_lookahead=50 / rc=crf / mbtree=1 / crf=18.0 / qcomp=0.60 / qpmin=0 / qpmax=69 / qpstep=4 / ip_ratio=1.40 / aq=1:1.20
Language : English
Default : Yes
Forced : No
Color primaries : BT.601 NTSC
Transfer characteristics : BT.709
Matrix coefficients : BT.601
Audio
ID : 2
Format : AC-3
Format/Info : Audio Coding 3
Mode extension : CM (complete main)
Format settings, Endianness : Big
Codec ID : A_AC3
Duration : 1h 16mn
Bit rate mode : Constant
Bit rate : 448 Kbps
Channel(s) : 6 channels
Channel positions : Front: L C R, Side: L R, LFE
Sampling rate : 48.0 KHz
Bit depth : 16 bits
Compression mode : Lossy
Stream size : 245 MiB (32%)
Language : English
Default : Yes
Forced : No
Text
ID : 3
Format : VobSub
Muxing mode : zlib
Codec ID : S_VOBSUB
Codec ID/Info : The same subtitle format used on DVDs
Language : French
Default : No
Forced : No
Menu
00:00:00.000 : en:Chapter 1
00:10:36.135 : en:Chapter 2
00:34:08.046 : en:Chapter 4
00:45:35.232 : en:Chapter 5
00:54:03.240 : en:Chapter 6
01:08:10.586 : en:Chapter 7

Скриншот c названием фильма

Скриншоты




Показать сообщения:    

Текущее время: 04-Дек 19:23

Часовой пояс: UTC + 3


Вы не можете начинать темы
Вы не можете отвечать на сообщения
Вы не можете редактировать свои сообщения
Вы не можете удалять свои сообщения
Вы не можете голосовать в опросах
Вы не можете прикреплять файлы к сообщениям
Вы не можете скачивать файлы