Очень одинокий петух (Леонид Шмельков) [2015, Россия, авторская анимация, абсурдный юмор, WEBRip-AVC]


 

[Цитировать]

Очень одинокий петух
Страна: Россия
Жанр: авторская анимация, абсурдный юмор
Год выпуска: 2015
Продолжительность: 00:05:45
Перевод: не требуется
Cубтитры: английские (две строчки)
Режиссёр: Леонид Шмельков
Описание: Мультипликационное воплощение сентенции "Умом Россию не понять".
Качество видео: WEBRip-AVC
Формат видео: MP4
Видео: 1725 kbps, 1280х720 (16:9), 25.000 fps, AVC (High@L3.1)
Аудио: 192 kbps, 44.1 kHz, 2 channels, AAC (LC)
Формат субтитров: hardsub (неотключаемые)

MediaInfo

General
Complete name : Очень одинокий петух (2015).mp4
Format : MPEG-4
Format profile : Base Media / Version 2
Codec ID : mp42
File size : 79.2 MiB
Duration : 5mn 45s
Overall bit rate mode : Variable
Overall bit rate : 1 919 Kbps
Encoded date : UTC 2015-07-21 09:45:52
Tagged date : UTC 2015-07-21 09:45:52
gsst : 0
gstd : 346023
gssd : BADC23ACAHM1437846342865880
gshh : r10---sn-n8v7lnel.googlevideo.com
Video
ID : 1
Format : AVC
Format/Info : Advanced Video Codec
Format profile : High@L3.1
Format settings, CABAC : Yes
Format settings, ReFrames : 1 frame
Codec ID : avc1
Codec ID/Info : Advanced Video Coding
Duration : 5mn 45s
Bit rate : 1 725 Kbps
Maximum bit rate : 3 365 Kbps
Width : 1 280 pixels
Height : 720 pixels
Display aspect ratio : 16:9
Frame rate mode : Constant
Frame rate : 25.000 fps
Color space : YUV
Chroma subsampling : 4:2:0
Bit depth : 8 bits
Scan type : Progressive
Bits/(Pixel*Frame) : 0.075
Stream size : 71.1 MiB (90%)
Tagged date : UTC 2015-07-21 09:45:56
Audio
ID : 2
Format : AAC
Format/Info : Advanced Audio Codec
Format profile : LC
Codec ID : 40
Duration : 5mn 45s
Bit rate mode : Variable
Bit rate : 192 Kbps
Maximum bit rate : 203 Kbps
Channel(s) : 2 channels
Channel positions : Front: L R
Sampling rate : 44.1 KHz
Compression mode : Lossy
Stream size : 7.92 MiB (10%)
Title : IsoMedia File Produced by Google, 5-11-2011
Language : English
Encoded date : UTC 2015-07-21 09:45:54
Tagged date : UTC 2015-07-21 09:45:56

Скриншот c названием фильма

Скриншоты




Показать сообщения:    

Текущее время: 05-Дек 13:26

Часовой пояс: UTC + 3


Вы не можете начинать темы
Вы не можете отвечать на сообщения
Вы не можете редактировать свои сообщения
Вы не можете удалять свои сообщения
Вы не можете голосовать в опросах
Вы не можете прикреплять файлы к сообщениям
Вы не можете скачивать файлы