Двигатель 371 / Engine 371 (Кевин Лэнгдейл / Kevin Langdale) [2007, Канада, авторская анимация, WEBRip-AVC]


 

[Цитировать]

Двигатель 371 / Engine 371
Страна: Канада
Жанр: авторская анимация
Год выпуска: 2007
Продолжительность: 00:09:08
Перевод: не требуется
Cубтитры: нет
Режиссёр: Кевин Лэнгдейл / Kevin Langdale
Описание: Метафоричный мультфильм о воздействии человека на природу.
Коллекционер приобретает маленькую модель паровоза начала ХХ века. Выложив на столе рельсы и натыкав вокруг миниатюрных деревьев, он пускает паровозик кататься по кругу. Вскоре пейзаж заселяется маленькими человечками, которые уже вовсю валят лес, строят деревообрабатывающую фабрику и расширяют железнодорожную сеть. Одного стола им становится мало…
Качество видео: WEBRip-AVC
Формат видео: MP4
Видео: 1431 kbps, 1280х720 (16:9), 24.000 fps, AVC (High@L3.1)
Аудио: 192 kbps, 44.1 kHz, 2 channels, AAC (LC)

MediaInfo

General
Complete name : Engine 371 (2007).mp4
Format : MPEG-4
Format profile : Base Media / Version 2
Codec ID : mp42
File size : 106 MiB
Duration : 9mn 8s
Overall bit rate mode : Variable
Overall bit rate : 1 625 Kbps
Encoded date : UTC 2015-07-09 15:43:52
Tagged date : UTC 2015-07-09 15:43:52
gsst : 0
gstd : 548546
gssd : B4A7DDAE6HM1437567175947581
gshh : r6---sn-4g57kuer.googlevideo.com
Video
ID : 1
Format : AVC
Format/Info : Advanced Video Codec
Format profile : High@L3.1
Format settings, CABAC : Yes
Format settings, ReFrames : 1 frame
Codec ID : avc1
Codec ID/Info : Advanced Video Coding
Duration : 9mn 8s
Bit rate : 1 431 Kbps
Maximum bit rate : 5 723 Kbps
Width : 1 280 pixels
Height : 720 pixels
Display aspect ratio : 16:9
Frame rate mode : Constant
Frame rate : 24.000 fps
Color space : YUV
Chroma subsampling : 4:2:0
Bit depth : 8 bits
Scan type : Progressive
Bits/(Pixel*Frame) : 0.065
Stream size : 93.6 MiB (88%)
Tagged date : UTC 2015-07-09 15:43:57
Audio
ID : 2
Format : AAC
Format/Info : Advanced Audio Codec
Format profile : LC
Codec ID : 40
Duration : 9mn 8s
Bit rate mode : Variable
Bit rate : 192 Kbps
Maximum bit rate : 202 Kbps
Channel(s) : 2 channels
Channel positions : Front: L R
Sampling rate : 44.1 KHz
Compression mode : Lossy
Stream size : 12.6 MiB (12%)
Title : IsoMedia File Produced by Google, 5-11-2011
Encoded date : UTC 2015-07-09 15:43:55
Tagged date : UTC 2015-07-09 15:43:57

Скриншот c названием фильма

Скриншоты




Показать сообщения:    

Текущее время: 05-Дек 19:40

Часовой пояс: UTC + 3


Вы не можете начинать темы
Вы не можете отвечать на сообщения
Вы не можете редактировать свои сообщения
Вы не можете удалять свои сообщения
Вы не можете голосовать в опросах
Вы не можете прикреплять файлы к сообщениям
Вы не можете скачивать файлы