Вина / Guilt (Тобиас Ларсон / Tobias Larson) [2012, Нидерланды, авторская анимация, WEBRip-AVC]


 

[Цитировать]

Вина / Guilt
Страна: Нидерланды
Жанр: авторская анимация
Год выпуска: 2012
Продолжительность: 00:11:07
Перевод: не требуется
Cубтитры: нет
Режиссёр: Тобиас Ларсон / Tobias Larson
Описание: Тёмная сила, вселившаяся в заглавного персонажа, заставляет его в беспамятстве совершать убийства. Светящийся призрачный кот приводит одержимого к божеству, которое должно исцелить его...
Качество видео: WEBRip-AVC
Формат видео: MP4
Видео: 2496 kbps, 1280х720 (16:9), 24.000 fps, AVC (High@L3.1)
Аудио: 157 kbps, 44.1 kHz, 2 channels, AAC (LC)

MediaInfo

General
Complete name : Guilt (2012).mp4
Format : MPEG-4
Format profile : Base Media
Codec ID : isom
File size : 211 MiB
Duration : 11mn 7s
Overall bit rate mode : Variable
Overall bit rate : 2 657 Kbps
Encoded date : UTC 2012-09-19 18:35:57
Tagged date : UTC 2012-09-20 18:36:01
Video
ID : 1
Format : AVC
Format/Info : Advanced Video Codec
Format profile : High@L3.1
Format settings, CABAC : Yes
Format settings, ReFrames : 4 frames
Codec ID : avc1
Codec ID/Info : Advanced Video Coding
Duration : 11mn 7s
Bit rate : 2 496 Kbps
Maximum bit rate : 5 944 Kbps
Width : 1 280 pixels
Height : 720 pixels
Display aspect ratio : 16:9
Frame rate mode : Constant
Frame rate : 24.000 fps
Color space : YUV
Chroma subsampling : 4:2:0
Bit depth : 8 bits
Scan type : Progressive
Bits/(Pixel*Frame) : 0.113
Stream size : 199 MiB (94%)
Writing library : Vimeo Encoder
Encoded date : UTC 2012-09-19 18:35:57
Tagged date : UTC 2012-09-19 18:36:00
Audio
ID : 2
Format : AAC
Format/Info : Advanced Audio Codec
Format profile : LC
Codec ID : 40
Duration : 11mn 7s
Bit rate mode : Variable
Bit rate : 157 Kbps
Maximum bit rate : 229 Kbps
Channel(s) : 2 channels
Channel positions : Front: L R
Sampling rate : 44.1 KHz
Compression mode : Lossy
Stream size : 12.5 MiB (6%)
Encoded date : UTC 2012-09-19 18:36:00
Tagged date : UTC 2012-09-19 18:36:00

Скриншот c названием фильма

Скриншоты




Показать сообщения:    

Текущее время: 07-Дек 21:24

Часовой пояс: UTC + 3


Вы не можете начинать темы
Вы не можете отвечать на сообщения
Вы не можете редактировать свои сообщения
Вы не можете удалять свои сообщения
Вы не можете голосовать в опросах
Вы не можете прикреплять файлы к сообщениям
Вы не можете скачивать файлы