Крылья и вёсла / Spārni un Airi / Wings and Oars (Владимир Лещёв / Vladimir Leščiov) [2009, Латвия, авторская анимация, DVDRip]


 

[Цитировать]

Крылья и вёсла / Spārni un Airi / Wings and Oars
Страна: Латвия
Жанр: авторская анимация
Год выпуска: 2009
Продолжительность: 00:05:37
Перевод: не требуется
Cубтитры: нет
Режиссёр: Владимир Лещёв / Vladimir Leščiov
Описание: Воздух и вода. Две этих стихии всегда влекли человека, рождая самые необычные фантазии...
Качество видео: DVDRip
Формат видео: AVI
Видео: 2351 kbps, 720х400 (4:3), 25.000 fps, MPEG-4 Visual (XviD)
Аудио: 128 kbps, 48.0 kHz, 2 channels, MPEG Audio (MP3)

MediaInfo

General
Complete name : Sparni un Airi (2009).avi
Format : AVI
Format/Info : Audio Video Interleave
File size : 100.0 MiB
Duration : 5mn 37s
Overall bit rate : 2 487 Kbps
Writing application : VirtualDubMod 1.5.4.1 (build 2178/release)
Writing library : VirtualDubMod build 2178/release
Video
ID : 0
Format : MPEG-4 Visual
Format profile : Advanced Simple@L5
Format settings, BVOP : 1
Format settings, QPel : No
Format settings, GMC : No warppoints
Format settings, Matrix : Custom
Codec ID : XVID
Codec ID/Hint : XviD
Duration : 5mn 37s
Bit rate : 2 351 Kbps
Width : 720 pixels
Height : 400 pixels
Display aspect ratio : 16:9
Frame rate : 25.000 fps
Color space : YUV
Chroma subsampling : 4:2:0
Bit depth : 8 bits
Scan type : Progressive
Compression mode : Lossy
Bits/(Pixel*Frame) : 0.327
Stream size : 94.5 MiB (95%)
Writing library : XviD 1.0.0 (UTC 2004-05-09)
Audio
ID : 1
Format : MPEG Audio
Format version : Version 1
Format profile : Layer 3
Mode : Joint stereo
Mode extension : MS Stereo
Codec ID : 55
Codec ID/Hint : MP3
Duration : 5mn 37s
Bit rate mode : Constant
Bit rate : 128 Kbps
Channel(s) : 2 channels
Sampling rate : 48.0 KHz
Compression mode : Lossy
Stream size : 5.15 MiB (5%)
Alignment : Aligned on interleaves
Interleave, duration : 80 ms (2.00 video frames)
Interleave, preload duration : 504 ms
Language : Unknown language

Скриншот c названием фильма

Скриншоты




Показать сообщения:    

Текущее время: 05-Дек 13:33

Часовой пояс: UTC + 3


Вы не можете начинать темы
Вы не можете отвечать на сообщения
Вы не можете редактировать свои сообщения
Вы не можете удалять свои сообщения
Вы не можете голосовать в опросах
Вы не можете прикреплять файлы к сообщениям
Вы не можете скачивать файлы