Задняя комната / The back room (Мириам Бэйкер, Майкл Крен / Mirjam Baker, Michael Kren) [2011, Австрия, авторская анимация, WEBRip-AVC]


 

[Цитировать]

Задняя комната / The back room
Страна: Австрия
Жанр: авторская анимация
Год выпуска: 2011
Продолжительность: 00:05:55
Перевод: не требуется
Cубтитры: нет
Режиссёры: Мириам Бэйкер, Майкл Крен / Mirjam Baker, Michael Kren
Описание: Человек входит в пустую комнату, и вдруг оказывается заперт в ней на замок. От безысходности он начинает отдирать куски обоев и мастерить из них предметы. Это занятие приводит к неожиданным последствиям...
Качество видео: WEBRip-AVC
Формат видео: MP4
Видео: 2460 kbps, 1280х720 (16:9), 25.000 fps, AVC (High@L3.1)
Аудио: 154 kbps, 44.1 kHz, 2 channels, AAC (LC)

MediaInfo

General
Complete name : The Back Room (2011).mp4
Format : MPEG-4
Format profile : Base Media
Codec ID : isom
File size : 111 MiB
Duration : 5mn 55s
Overall bit rate mode : Variable
Overall bit rate : 2 617 Kbps
Encoded date : UTC 2011-09-22 10:15:04
Tagged date : UTC 2011-09-23 10:15:06
Video
ID : 1
Format : AVC
Format/Info : Advanced Video Codec
Format profile : High@L3.1
Format settings, CABAC : Yes
Format settings, ReFrames : 4 frames
Codec ID : avc1
Codec ID/Info : Advanced Video Coding
Duration : 5mn 55s
Bit rate : 2 460 Kbps
Maximum bit rate : 8 455 Kbps
Width : 1 280 pixels
Height : 720 pixels
Display aspect ratio : 16:9
Frame rate mode : Constant
Frame rate : 25.000 fps
Color space : YUV
Chroma subsampling : 4:2:0
Bit depth : 8 bits
Scan type : Progressive
Bits/(Pixel*Frame) : 0.107
Stream size : 104 MiB (94%)
Writing library : Vimeo Encoder
Encoded date : UTC 2011-09-22 10:15:04
Tagged date : UTC 2011-09-22 10:15:05
Audio
ID : 2
Format : AAC
Format/Info : Advanced Audio Codec
Format profile : LC
Codec ID : 40
Duration : 5mn 55s
Bit rate mode : Variable
Bit rate : 154 Kbps
Maximum bit rate : 198 Kbps
Channel(s) : 2 channels
Channel positions : Front: L R
Sampling rate : 44.1 KHz
Compression mode : Lossy
Stream size : 6.51 MiB (6%)
Encoded date : UTC 2011-09-22 10:15:05
Tagged date : UTC 2011-09-22 10:15:05

Скриншот c названием фильма

Скриншоты




Показать сообщения:    

Текущее время: 03-Дек 09:49

Часовой пояс: UTC + 3


Вы не можете начинать темы
Вы не можете отвечать на сообщения
Вы не можете редактировать свои сообщения
Вы не можете удалять свои сообщения
Вы не можете голосовать в опросах
Вы не можете прикреплять файлы к сообщениям
Вы не можете скачивать файлы