Мальчик, который хотел быть львом / The Boy who wanted to be a Lion (Элоиз ди Лео / Alois Di Leo) [2010, Великобритания, авторская анимация, WEBRip-AVC]


 

[Цитировать]

Мальчик, который хотел быть львом / The Boy who wanted to be a Lion
Страна: Великобритания
Жанр: авторская анимация
Год выпуска: 2010
Продолжительность: 00:09:00
Перевод: не требуется
Cубтитры: нет
Режиссёр: Элоиз ди Лео / Alois Di Leo
Описание: Макс родился слабослышащим и поэтому всегда чувствовал себя изолированным от окружающих. В семилетнем возрасте на школьной экскурсии в зоопарке он впервые увидел льва. Чувство, начавшее расти внутри мальчика, изменило его жизнь навсегда...
Качество видео: WEBRip-AVC
Формат видео: MP4
Видео: 2369 kbps, 1694х720 (2.35:1), 25.000 fps, AVC (High@L3.1)
Аудио: 157 kbps, 48.0 kHz, 2 channels, AAC (LC)

MediaInfo

General
Complete name : The Boy who wanted to be a Lion (2010).mp4
Format : MPEG-4
Format profile : Base Media
Codec ID : isom
File size : 162 MiB
Duration : 9mn 0s
Overall bit rate mode : Variable
Overall bit rate : 2 522 Kbps
Encoded date : UTC 2012-10-02 18:39:05
Tagged date : UTC 2012-10-02 18:39:07
Video
ID : 1
Format : AVC
Format/Info : Advanced Video Codec
Format profile : High@L3.1
Format settings, CABAC : Yes
Format settings, ReFrames : 4 frames
Codec ID : avc1
Codec ID/Info : Advanced Video Coding
Duration : 9mn 0s
Bit rate : 2 369 Kbps
Maximum bit rate : 8 292 Kbps
Width : 1 694 pixels
Height : 720 pixels
Display aspect ratio : 2.35:1
Frame rate mode : Constant
Frame rate : 25.000 fps
Color space : YUV
Chroma subsampling : 4:2:0
Bit depth : 8 bits
Scan type : Progressive
Bits/(Pixel*Frame) : 0.078
Stream size : 152 MiB (94%)
Writing library : x264 core 128 r2216 198a7ea
Encoding settings : cabac=1 / ref=3 / deblock=1:0:0 / analyse=0x3:0x113 / me=hex / subme=7 / psy=1 / psy_rd=1.00:0.00 / mixed_ref=1 / me_range=16 / chroma_me=1 / trellis=1 / 8x8dct=1 / cqm=0 / deadzone=21,11 / fast_pskip=1 / chroma_qp_offset=-2 / threads=12 / lookahead_threads=2 / sliced_threads=0 / nr=0 / decimate=1 / interlaced=0 / bluray_compat=0 / constrained_intra=0 / bframes=3 / b_pyramid=2 / b_adapt=1 / b_bias=0 / direct=1 / weightb=1 / open_gop=0 / weightp=2 / keyint=75 / keyint_min=25 / scenecut=40 / intra_refresh=0 / rc_lookahead=40 / rc=2pass / mbtree=1 / bitrate=2369 / ratetol=1.0 / qcomp=0.60 / qpmin=0 / qpmax=69 / qpstep=4 / cplxblur=20.0 / qblur=0.5 / vbv_maxrate=3750 / vbv_bufsize=12500 / nal_hrd=none / ip_ratio=1.40 / aq=1:1.00
Encoded date : UTC 2012-10-02 18:39:05
Tagged date : UTC 2012-10-02 18:39:06
Audio
ID : 2
Format : AAC
Format/Info : Advanced Audio Codec
Format profile : LC
Codec ID : 40
Duration : 9mn 0s
Bit rate mode : Variable
Bit rate : 157 Kbps
Maximum bit rate : 194 Kbps
Channel(s) : 2 channels
Channel positions : Front: L R
Sampling rate : 48.0 KHz
Compression mode : Lossy
Stream size : 10.1 MiB (6%)
Title : 120564983.m4v.aac#audio - Imported with GPAC 0.4.6-DEV-rev4027
Encoded date : UTC 2012-10-02 18:39:06
Tagged date : UTC 2012-10-02 18:39:06

Скриншот c названием фильма

Скриншоты




Показать сообщения:    

Текущее время: 11-Дек 14:58

Часовой пояс: UTC + 3


Вы не можете начинать темы
Вы не можете отвечать на сообщения
Вы не можете редактировать свои сообщения
Вы не можете удалять свои сообщения
Вы не можете голосовать в опросах
Вы не можете прикреплять файлы к сообщениям
Вы не можете скачивать файлы