Несуразь / One Turtle (Анна Романова) [2014, Россия, авторская анимация, WEBRip]


 

[Цитировать]

Несуразь / One Turtle
Страна: Россия
Жанр: авторская анимация
Год выпуска: 2014
Продолжительность: 00:05:01
Cубтитры: нет
Режиссёр: Анна Романова
Описание: Черепаха очень раздражена: все животные вокруг ненормальные, все чем-то недовольны и все чего-то от неё хотят! Хочется бежать подальше... Но выход ли это?
Доп. информация: Дипломная работа студентки школы-студии "Шар", ученицы Ивана Максимова.
Качество видео: WEBRip
Формат видео: AVI
Видео: 2125 kbps, 720х400 (16:9), 25.000 fps, MPEG-4 Visual (XviD)
Аудио: 192 kbps, 44.1 kHz, 2 channels, MPEG Audio (MP3)

MediaInfo

General
Complete name : Несуразь (2014).avi
Format : AVI
Format/Info : Audio Video Interleave
File size : 83.7 MiB
Duration : 5mn 1s
Overall bit rate : 2 329 Kbps
Writing application : MEncoder SVN-r30881(20100311-gcc4.3.3)
Writing library : MPlayer
Video
ID : 0
Format : MPEG-4 Visual
Format profile : Advanced Simple@L5
Format settings, BVOP : 2
Format settings, QPel : No
Format settings, GMC : No warppoints
Format settings, Matrix : Default (H.263)
Codec ID : XVID
Codec ID/Hint : XviD
Duration : 5mn 1s
Bit rate : 2 125 Kbps
Width : 720 pixels
Height : 400 pixels
Display aspect ratio : 16:9
Original display aspect ratio : 16:9
Frame rate : 25.000 fps
Color space : YUV
Chroma subsampling : 4:2:0
Bit depth : 8 bits
Scan type : Progressive
Compression mode : Lossy
Bits/(Pixel*Frame) : 0.295
Stream size : 76.3 MiB (91%)
Writing library : XviD 1.2.1 (UTC 2008-12-04)
Audio
ID : 1
Format : MPEG Audio
Format version : Version 1
Format profile : Layer 3
Mode : Joint stereo
Mode extension : MS Stereo
Codec ID : 55
Codec ID/Hint : MP3
Duration : 5mn 1s
Bit rate mode : Constant
Bit rate : 192 Kbps
Channel(s) : 2 channels
Sampling rate : 44.1 KHz
Compression mode : Lossy
Delay relative to video : 40ms
Stream size : 6.90 MiB (8%)
Alignment : Aligned on interleaves
Interleave, duration : 26 ms (0.65 video frame)
Interleave, preload duration : 522 ms
Writing library : LAME3.98

Скриншот c названием фильма

Скриншоты




Показать сообщения:    

Текущее время: 04-Дек 11:14

Часовой пояс: UTC + 3


Вы не можете начинать темы
Вы не можете отвечать на сообщения
Вы не можете редактировать свои сообщения
Вы не можете удалять свои сообщения
Вы не можете голосовать в опросах
Вы не можете прикреплять файлы к сообщениям
Вы не можете скачивать файлы