Медиа / Média (Павел Коуцки / Pavel Koutský) [2000, Чехия, авторская анимация, DVDRip]


 

[Цитировать]

Медиа / Média
Страна: Чехия
Жанр: авторская анимация
Год выпуска: 2000
Продолжительность: 00:05:01
Перевод: не требуется
Cубтитры: нет
Режиссёр: Павел Коуцки / Pavel Koutský
Описание: Гротескная сатира о средствах массовой информации и их влиянии на человека.
Доп. информация: Приз критики на фестивале "Annecy" (2000)
Качество видео: DVDRip
Формат видео: AVI
Видео: 2388 kbps, 720х480 (3:2), 25.000 fps, MPEG-4 Visual (XviD)
Аудио: 192 kbps, 44.1 kHz, 2 channels, MPEG Audio (MP3)

MediaInfo

General
Complete name : Media (2000).avi
Format : AVI
Format/Info : Audio Video Interleave
File size : 93.2 MiB
Duration : 5mn 1s
Overall bit rate : 2 593 Kbps
Writing application : Lavf54.63.104
Video
ID : 0
Format : MPEG-4 Visual
Format profile : Simple@L0
Format settings, BVOP : No
Format settings, QPel : No
Format settings, GMC : No warppoints
Format settings, Matrix : Default (H.263)
Codec ID : XVID
Codec ID/Hint : XviD
Duration : 5mn 1s
Bit rate : 2 388 Kbps
Width : 720 pixels
Height : 480 pixels
Display aspect ratio : 3:2
Frame rate : 25.000 fps
Standard : NTSC
Color space : YUV
Chroma subsampling : 4:2:0
Bit depth : 8 bits
Scan type : Progressive
Compression mode : Lossy
Bits/(Pixel*Frame) : 0.276
Stream size : 85.8 MiB (92%)
Writing library : XviD 1.2.1 (UTC 2008-12-04)
Audio
ID : 1
Format : MPEG Audio
Format version : Version 1
Format profile : Layer 3
Mode : Joint stereo
Mode extension : MS Stereo
Codec ID : 55
Codec ID/Hint : MP3
Duration : 5mn 1s
Bit rate mode : Constant
Bit rate : 192 Kbps
Channel(s) : 2 channels
Sampling rate : 44.1 KHz
Compression mode : Lossy
Delay relative to video : 197ms
Stream size : 6.90 MiB (7%)
Alignment : Aligned on interleaves
Interleave, duration : 26 ms (0.65 video frame)

Скриншот c названием фильма

Скриншоты




Показать сообщения:    

Текущее время: 03-Дек 16:43

Часовой пояс: UTC + 3


Вы не можете начинать темы
Вы не можете отвечать на сообщения
Вы не можете редактировать свои сообщения
Вы не можете удалять свои сообщения
Вы не можете голосовать в опросах
Вы не можете прикреплять файлы к сообщениям
Вы не можете скачивать файлы