Е / E (Бржетислав Пояр / Bretislav Pojar) [1981, Канада, авторская анимация, WEBRip]


 

[Цитировать]

Е / E
Страна: Канада
Жанр: авторская анимация
Год выпуска: 1981
Продолжительность: 00:06:32
Перевод: не требуется
Cубтитры: нет
Режиссёр: Бржетислав Пояр / Bretislav Pojar
Описание: Фильм известного чешского аниматора, снятый в Канаде.
Сатирическая притча о том, как порой формируется общественное мнение.
Качество видео: WEBRip
Формат видео: AVI
Видео: 2241 kbps, 720х544 (4:3), 23.976 fps, MPEG-4 Visual (XviD)
Аудио: 196 kbps, 44.1 kHz, 2 channels, MPEG Audio (MP3)

MediaInfo

General
Complete name : E (1981).avi
Format : AVI
Format/Info : Audio Video Interleave
File size : 115 MiB
Duration : 6mn 34s
Overall bit rate : 2 446 Kbps
Writing application : Lavf55.33.100
Video
ID : 0
Format : MPEG-4 Visual
Format profile : Simple@L3
Format settings, BVOP : No
Format settings, QPel : No
Format settings, GMC : No warppoints
Format settings, Matrix : Default (H.263)
Codec ID : XVID
Codec ID/Hint : XviD
Duration : 6mn 34s
Bit rate : 2 241 Kbps
Width : 720 pixels
Height : 544 pixels
Display aspect ratio : 4:3
Frame rate : 23.976 fps
Color space : YUV
Chroma subsampling : 4:2:0
Bit depth : 8 bits
Scan type : Progressive
Compression mode : Lossy
Bits/(Pixel*Frame) : 0.239
Stream size : 105 MiB (92%)
Writing library : XviD 64
Audio
ID : 1
Format : MPEG Audio
Format version : Version 1
Format profile : Layer 3
Mode : Joint stereo
Mode extension : MS Stereo
Codec ID : 55
Codec ID/Hint : MP3
Duration : 6mn 34s
Bit rate mode : Constant
Bit rate : 192 Kbps
Channel(s) : 2 channels
Sampling rate : 44.1 KHz
Compression mode : Lossy
Stream size : 9.02 MiB (8%)
Alignment : Aligned on interleaves
Interleave, duration : 26 ms (0.63 video frame)
Interleave, preload duration : 26 ms
Writing library : LAME3.99.5

Скриншот c названием фильма

Скриншоты




Показать сообщения:    

Текущее время: 07-Дек 19:26

Часовой пояс: UTC + 3


Вы не можете начинать темы
Вы не можете отвечать на сообщения
Вы не можете редактировать свои сообщения
Вы не можете удалять свои сообщения
Вы не можете голосовать в опросах
Вы не можете прикреплять файлы к сообщениям
Вы не можете скачивать файлы