Инквизиция / Rondino (Чаба Цоради / Csaba Szórády) [1977, Венгрия, авторская анимация, чёрный юмор, VHSRip]


 

[Цитировать]

Инквизиция / Rondino
Страна: Венгрия
Жанр: авторская анимация, чёрный юмор
Год выпуска: 1977
Продолжительность: 00:02:05
Перевод: не требуется
Cубтитры: нет
Режиссёр: Чаба Цоради / Csaba Szórády
Описание: Графически-лаконичная зарисовка, в жанре чёрного юмора повествующая о работе инквизиторов.
Доп. информация: Приз критики фестиваля "Annecy" (1977)
Качество видео: VHSRip
Формат видео: AVI
Видео: 740 kbps, 544х432 (5:4), 25.000 fps, MPEG-4 Visual (XviD)
Аудио: 128 kbps, 44.1 kHz, 2 channels, MPEG Audio (MP3)

MediaInfo

General
Complete name : Rondino (1977).avi
Format : AVI
Format/Info : Audio Video Interleave
File size : 13.2 MiB
Duration : 2mn 5s
Overall bit rate : 880 Kbps
Writing application : Lavf55.33.100
Video
ID : 0
Format : MPEG-4 Visual
Format profile : Advanced Simple@L5
Format settings, BVOP : No
Format settings, QPel : No
Format settings, GMC : No warppoints
Format settings, Matrix : Default (H.263)
Codec ID : XVID
Codec ID/Hint : XviD
Duration : 2mn 5s
Bit rate : 740 Kbps
Width : 544 pixels
Height : 432 pixels
Display aspect ratio : 5:4
Frame rate : 25.000 fps
Color space : YUV
Chroma subsampling : 4:2:0
Bit depth : 8 bits
Scan type : Progressive
Compression mode : Lossy
Bits/(Pixel*Frame) : 0.126
Stream size : 11.1 MiB (84%)
Writing library : XviD 64
Audio
ID : 1
Format : MPEG Audio
Format version : Version 1
Format profile : Layer 3
Codec ID : 55
Codec ID/Hint : MP3
Duration : 2mn 5s
Bit rate mode : Constant
Bit rate : 128 Kbps
Channel(s) : 2 channels
Sampling rate : 44.1 KHz
Compression mode : Lossy
Stream size : 1.91 MiB (14%)
Alignment : Aligned on interleaves
Interleave, duration : 26 ms (0.66 video frame)
Interleave, preload duration : 26 ms
Writing library : LAME3.99.5

Скриншот c названием фильма

Скриншоты




Показать сообщения:    

Текущее время: 08-Дек 03:15

Часовой пояс: UTC + 3


Вы не можете начинать темы
Вы не можете отвечать на сообщения
Вы не можете редактировать свои сообщения
Вы не можете удалять свои сообщения
Вы не можете голосовать в опросах
Вы не можете прикреплять файлы к сообщениям
Вы не можете скачивать файлы