Заячий случай / The Rabbit's Case (Якуб Вроньски / Jakub Wroński) [2009, Польша, авторская анимация, WEBRip]


 

[Цитировать]

Заячий случай / The Rabbit's Case
Страна: Польша
Жанр: авторская анимация
Год выпуска: 2009
Продолжительность: 00:10:42
Перевод: не требуется
Cубтитры: нет
Режиссёр: Якуб Вроньски / Jakub Wroński
Описание: История двух друзей - волка и зайца. У зайца сидеродромофобия: он панически боится поездов. Волк пробует разные способы для излечения друга...
Доп. информация: Гран При - Фестиваль Анимации в Кракове (2010)
Лучший короткометражный мультфильм - Фестиваль "Ale Kino" в Познане (2010)
Качество видео: WEBRip
Формат видео: AVI
Видео: 1351 kbps, 720х400 (16:9), 25.000 fps, MPEG-4 Visual (XviD)
Аудио: 160 kbps, 48.0 kHz, 2 channels, MPEG Audio (MP3)

MediaInfo

General
Complete name : The Rabbit's Case (2009).avi
Format : AVI
Format/Info : Audio Video Interleave
File size : 117 MiB
Duration : 10mn 42s
Overall bit rate : 1 524 Kbps
Writing application : Lavf55.33.100
Video
ID : 0
Format : MPEG-4 Visual
Format profile : Simple@L3
Format settings, BVOP : No
Format settings, QPel : No
Format settings, GMC : No warppoints
Format settings, Matrix : Default (H.263)
Codec ID : XVID
Codec ID/Hint : XviD
Duration : 10mn 42s
Bit rate : 1 351 Kbps
Width : 720 pixels
Height : 400 pixels
Display aspect ratio : 16:9
Frame rate : 25.000 fps
Color space : YUV
Chroma subsampling : 4:2:0
Bit depth : 8 bits
Scan type : Progressive
Compression mode : Lossy
Bits/(Pixel*Frame) : 0.188
Stream size : 103 MiB (89%)
Writing library : XviD 64
Audio
ID : 1
Format : MPEG Audio
Format version : Version 1
Format profile : Layer 3
Mode : Joint stereo
Mode extension : MS Stereo
Codec ID : 55
Codec ID/Hint : MP3
Duration : 10mn 42s
Bit rate mode : Constant
Bit rate : 160 Kbps
Channel(s) : 2 channels
Sampling rate : 48.0 KHz
Compression mode : Lossy
Stream size : 12.3 MiB (10%)
Alignment : Aligned on interleaves
Interleave, duration : 24 ms (0.60 video frame)
Interleave, preload duration : 24 ms
Writing library : LAME3.99.5

Скриншот c названием фильма

Скриншоты




Показать сообщения:    

Текущее время: 11-Дек 01:27

Часовой пояс: UTC + 3


Вы не можете начинать темы
Вы не можете отвечать на сообщения
Вы не можете редактировать свои сообщения
Вы не можете удалять свои сообщения
Вы не можете голосовать в опросах
Вы не можете прикреплять файлы к сообщениям
Вы не можете скачивать файлы