Пиф-паф! / Bang Bang! (Жюльен Бизаро / Julien Bisaro) [2014, драма, анимация, короткий метр, DVB] Original (Fre) + Sub (Rus)


 

[Цитировать]

Пиф-паф!
Bang Bang!- Страна: Франция
Жанр: драма, анимация, короткий метр
Продолжительность: 00:11:30
Год выпуска: 2014
Перевод: Субтитры
Русские субтитры: естьРежиссёр: Жюльен Бизаро / Julien Bisaro
Роли озвучивали: Андреа Брюск / Andréa Brusque (Eda), Феодор Аткин / Féodor Atkine (Le père), Эрик Эрсон-Макарель / Eric Herson-Macarel (François)
Описание: Фильм об открытии сезона охоты и 25-м дне рождения Эды, которой отец в честь праздника дарит квартиру…
Доп. информация: Hot Bird (13.0°E) TV5MONDE Europe DVB-S
Награды: номинация за "Сезар" 2015 за лучший анимационный фильм; приз за лучший анимационный фильм Ottawa International Short Film Festival 2015; всего более 15 наград МКФ.

Качество: DVB
Формат: MKV
Видео: MPEG Video 2, 720x576@1024x576 (16:9), 25 fps, ~2479 kbps avg, 0.239 bit/pixel
Аудио: MPEG Audio 2, 2 ch, 48 kHz, ~192.00 kbps avg - французский
Субтитры: русские, английские, французские, немецкие, нидерландские, румынские

Подробные технические данные

ОбщееУникальный идентификатор : 223204226644657002188515652512740640881 (0xA7EB92047B203338A62E297B6D218871)Полное имя : E:\My Torrents 2\[apreder]MINI_MOVIES_09\[apreder]MM_Bang_Bang(2014)DVB.mkvФормат : MatroskaВерсия формата : Version 2Размер файла : 224 МбайтПродолжительность : 11 м.Режим общего битрейта : ПеременныйОбщий поток : 2725 Кбит/секДата кодирования : UTC 2015-05-11 12:27:51Программа кодирования : mkvmerge v7.9.0 ('Birds') 64bitБиблиотека кодирования : libebml v1.3.1 + libmatroska v1.4.2
ВидеоИдентификатор : 1Формат : MPEG VideoВерсия формата : Version 2Профиль формата : Main@MainПараметр BVOP формата : ДаПараметр матрицы формата : ВыборочнаяПараметр GOP формата : M=4, N=12Format_Settings_PictureStructure : FrameИдентификатор кодека : V_MPEG2Идентификатор кодека/Информация : MPEG 1 or 2 VideoПродолжительность : 11 м.Вид битрейта : ПеременныйБитрейт : 2479 Кбит/секШирина : 720 пикселейВысота : 576 пикселейСоотношение сторон : 16:9Режим частоты кадров : ПостоянныйЧастота кадров : 25,000 кадров/секСтандарт вещания : PALЦветовое пространство : YUVСубдискретизация насыщенности : 4:2:0Битовая глубина : 8 битТип развёртки : ЧересстрочнаяПорядок развёртки : Верхнее поле первоеМетод сжатия : С потерямиБит/(Пиксели*Кадры) : 0.239Временной код первого кадра : 00:00:00:00Оригинал временного кода : Group of pictures headerРазмер потока : 204 Мбайт (91%)Default : ДаForced : Нет
АудиоИдентификатор : 2Формат : MPEG AudioВерсия формата : Version 1Профиль формата : Layer 2Режим : Joint stereoРасширение режима : Intensity Stereo + MS StereoИдентификатор кодека : A_MPEG/L2Идентификатор кодека/Подсказка : MP2Продолжительность : 11 м.Вид битрейта : ПостоянныйБитрейт : 192 Кбит/секКаналы : 2 каналаЧастота : 48,0 КГцМетод сжатия : С потерямиРазмер потока : 15,8 Мбайт (7%)Язык : FrenchDefault : ДаForced : Нет
Текст #1Идентификатор : 3Формат : VobSubРежим смешивания : zlibИдентификатор кодека : S_VOBSUBИдентификатор кодека/Информация : Picture based subtitle format used on DVDsЯзык : RussianDefault : ДаForced : Нет
Текст #2Идентификатор : 4Формат : VobSubРежим смешивания : zlibИдентификатор кодека : S_VOBSUBИдентификатор кодека/Информация : Picture based subtitle format used on DVDsЯзык : EnglishDefault : НетForced : Нет
Текст #3Идентификатор : 5Формат : VobSubРежим смешивания : zlibИдентификатор кодека : S_VOBSUBИдентификатор кодека/Информация : Picture based subtitle format used on DVDsЯзык : FrenchDefault : НетForced : Нет
Текст #4Идентификатор : 6Формат : VobSubРежим смешивания : zlibИдентификатор кодека : S_VOBSUBИдентификатор кодека/Информация : Picture based subtitle format used on DVDsЯзык : GermanDefault : НетForced : Нет
Текст #5Идентификатор : 7Формат : VobSubРежим смешивания : zlibИдентификатор кодека : S_VOBSUBИдентификатор кодека/Информация : Picture based subtitle format used on DVDsЯзык : DutchDefault : НетForced : Нет
Текст #6Идентификатор : 8Формат : VobSubРежим смешивания : zlibИдентификатор кодека : S_VOBSUBИдентификатор кодека/Информация : Picture based subtitle format used on DVDsЯзык : RomanianDefault : НетForced : Нет

Скриншоты

Резервные скриншоты

-[2'281]



Показать сообщения:    

Текущее время: 07-Дек 15:28

Часовой пояс: UTC + 3


Вы не можете начинать темы
Вы не можете отвечать на сообщения
Вы не можете редактировать свои сообщения
Вы не можете удалять свои сообщения
Вы не можете голосовать в опросах
Вы не можете прикреплять файлы к сообщениям
Вы не можете скачивать файлы