Совы Нежные (А. Будовский, И. Максимов, А. Бахурин, Н. Мирзоян, А. Свирский, М. Рено, М. Тумеля, А. Алексеев и др.) [2015, Россия, Украина, Белоруссия, Казахстан, Нидерланды, авторская анимация, WEBRip-AVC]


 

[Цитировать]

Совы Нежные
Страна: Россия, Украина, Белоруссия, Казахстан, Узбекистан, Армения, Башкортостан, Нидерланды
Жанр: авторская анимация, музыкальный
Год выпуска: 2015
Продолжительность: 00:03:59
Перевод: не требуется
Cубтитры: нет
Режиссёры: Алексей Будовский, Юлия Рудицкая, Иван Максимов, Сергей Меринов, Андрей Бахурин, Наталья Мирзоян, Александр Свирский, Моник Рено, Михаил Тумеля, Алексей Алексеев и др.
Описание: Экранизация песни, записанной французской группой "Les Pires" в 1994 году. В центре сюжета – неудачник, в жизни которого наступила чёрная полоса. И только голоса нежных сов за спиной всегда поднимают ему настроение.
В 2014 году более двадцати мультипликаторов из разных городов объединились в желании снять фильм на эту песню.
Полный состав участников анимационного джем-сейшена: Алексей Будовский, Юлия Рудицкая, Светлана Андрианова, Юлия Тхай, Рамиль Усманов, Данила Полетыкин, Иван Максимов, Сергей Меринов, Наталья Соколова, Гаяна Матевосян, Шамиль Юсупов, Андрей Бахурин, Наталья Мирзоян, Наира Мурадян, Александр Свирский, Моник Рено, Сюзанна Сзабо, Евгения Пашкина, Наталья Березовая, Мария Якушина, Наталья Скрябина, Марина Россет, Рим Шарафутдинов, Владислав Зайнуллин, Михаил Тумеля, Андрей Золотухин, Зоя Киреева, Алексей Алексеев.
Доп. информация: Премьера была приурочена к первой церемонии вручения Национальной анимационной премии "Икар" 8 апреля 2015 года.
Качество видео: WEBRip-AVC
Формат видео: MP4
Видео: 1776 kbps, 1280х720 (16:9), 25.000 fps, AVC (High@L3.1)
Аудио: 192 kbps, 44.1 kHz, 2 channels, AAC (LC)

MediaInfo

General
Complete name : Совы Нежные (2015).mp4
Format : MPEG-4
Format profile : Base Media / Version 2
Codec ID : mp42
File size : 56.3 MiB
Duration : 3mn 59s
Overall bit rate mode : Variable
Overall bit rate : 1 970 Kbps
Encoded date : UTC 2015-04-24 12:09:56
Tagged date : UTC 2015-04-24 12:09:56
gsst : 0
gstd : 239908
gssd : B5FB51005HH1430015163887269
gshh : r2---sn-xapbiu-3xwe.googlevideo.com
Video
ID : 1
Format : AVC
Format/Info : Advanced Video Codec
Format profile : High@L3.1
Format settings, CABAC : Yes
Format settings, ReFrames : 1 frame
Codec ID : avc1
Codec ID/Info : Advanced Video Coding
Duration : 3mn 59s
Bit rate : 1 776 Kbps
Maximum bit rate : 7 280 Kbps
Width : 1 280 pixels
Height : 720 pixels
Display aspect ratio : 16:9
Frame rate mode : Constant
Frame rate : 25.000 fps
Color space : YUV
Chroma subsampling : 4:2:0
Bit depth : 8 bits
Scan type : Progressive
Bits/(Pixel*Frame) : 0.077
Stream size : 50.8 MiB (90%)
Tagged date : UTC 2015-04-24 12:09:58
Audio
ID : 2
Format : AAC
Format/Info : Advanced Audio Codec
Format profile : LC
Codec ID : 40
Duration : 3mn 59s
Bit rate mode : Variable
Bit rate : 192 Kbps
Maximum bit rate : 203 Kbps
Channel(s) : 2 channels
Channel positions : Front: L R
Sampling rate : 44.1 KHz
Compression mode : Lossy
Stream size : 5.49 MiB (10%)
Title : IsoMedia File Produced by Google, 5-11-2011
Language : English
Encoded date : UTC 2015-04-24 12:09:57
Tagged date : UTC 2015-04-24 12:09:58

Скриншот c названием фильма

Скриншоты




Показать сообщения:    

Текущее время: 07-Дек 23:20

Часовой пояс: UTC + 3


Вы не можете начинать темы
Вы не можете отвечать на сообщения
Вы не можете редактировать свои сообщения
Вы не можете удалять свои сообщения
Вы не можете голосовать в опросах
Вы не можете прикреплять файлы к сообщениям
Вы не можете скачивать файлы