Животные для животных / Eläimiä eleläimille (Тату Похъявирта / Tatu Pohjavirta) [2011, Финляндия, авторская анимация, WEBRip-AVC]


 

[Цитировать]

Животные для животных / Eläimiä eleläimille
Страна: Финляндия
Жанр: авторская анимация
Год выпуска: 2011
Продолжительность: 00:10:05
Перевод: не требуется
Cубтитры: нет
Режиссёр: Тату Похъявирта / Tatu Pohjavirta
Описание: Хрупкая продавщица зоомагазина и здоровенный как горилла дорожный рабочий. Совместима ли эта пара? Всё возможно, было бы желание.
Качество видео: WEBRip-AVC
Формат видео: MP4
Видео: 2498 kbps, 1280х720 (16:9), 25.000 fps, AVC (High@L3.1)
Аудио: 158 kbps, 44.1 kHz, 2 channels, AAC (LC)

MediaInfo

General
Complete name : Eläimiä eleläimille (2011).mp4
Format : MPEG-4
Format profile : Base Media
Codec ID : isom
File size : 192 MiB
Duration : 10mn 5s
Overall bit rate mode : Variable
Overall bit rate : 2 658 Kbps
Encoded date : UTC 2011-06-16 13:48:46
Tagged date : UTC 2011-06-17 13:48:49
Video
ID : 1
Format : AVC
Format/Info : Advanced Video Codec
Format profile : High@L3.1
Format settings, CABAC : Yes
Format settings, ReFrames : 4 frames
Codec ID : avc1
Codec ID/Info : Advanced Video Coding
Duration : 10mn 5s
Bit rate : 2 498 Kbps
Maximum bit rate : 8 561 Kbps
Width : 1 280 pixels
Height : 720 pixels
Display aspect ratio : 16:9
Frame rate mode : Constant
Frame rate : 25.000 fps
Color space : YUV
Chroma subsampling : 4:2:0
Bit depth : 8 bits
Scan type : Progressive
Bits/(Pixel*Frame) : 0.108
Stream size : 180 MiB (94%)
Writing library : Vimeo Encoder
Encoded date : UTC 2011-06-16 13:48:46
Tagged date : UTC 2011-06-16 13:48:48
Audio
ID : 2
Format : AAC
Format/Info : Advanced Audio Codec
Format profile : LC
Codec ID : 40
Duration : 10mn 5s
Bit rate mode : Variable
Bit rate : 158 Kbps
Maximum bit rate : 190 Kbps
Channel(s) : 2 channels
Channel positions : Front: L R
Sampling rate : 44.1 KHz
Compression mode : Lossy
Stream size : 11.4 MiB (6%)
Encoded date : UTC 2011-06-16 13:48:48
Tagged date : UTC 2011-06-16 13:48:48

Скриншот c названием фильма

Скриншоты




Показать сообщения:    

Текущее время: 08-Дек 23:13

Часовой пояс: UTC + 3


Вы не можете начинать темы
Вы не можете отвечать на сообщения
Вы не можете редактировать свои сообщения
Вы не можете удалять свои сообщения
Вы не можете голосовать в опросах
Вы не можете прикреплять файлы к сообщениям
Вы не можете скачивать файлы