Дикая планета / Fantastic Planet / La planete sauvage (Рене Лалу / Rene Laloux) [1973, Франция, Чехословакия, фантастика, анимация, BDRip 1080p] MVO (R5) + Sub Eng + Original Fre


 

[Цитировать]

Дикая планета / Fantastic Planet / La planete sauvage
Страна: Франция, Чехословакия
Жанр: Фантастика, анимация
Год выпуска: 1973
Продолжительность: 01:11:47
Перевод: Профессиональный (многоголосый закадровый) R5
Cубтитры: английские
Оригинальная аудиодорожка: французский
Режиссер: Рене Лалу / Rene Laloux
В ролях: Дженнифер Дрэйк, Жан Топар, Сильви Ленуар, Ив Барсак, Юбер де Лаппаран, Жерар Эрнандес, Клод Джозеф
Описание: Действие происходит на далекой планете Игам, где правят голубые существа с красными глазами и гигантского роста – драгги. Эти бывшие амфибиеподобные существа жители в воде, но за миллионы лет эволюции не только перебрались на сушу и научились дышать воздухом, но и достигли высоких технологий в области ментальной передачи мыслей и знаний. С помощью специального устройства в виде наушников их маленькие дети вмиг становятся гениями. У них нет проблем, кроме одной – омы. Эти розовотелые миниатюрные гуманоиды были когда-то в древности вывезены с планеты Терра – мир которой они сами и разрушили, и теперь являются одомашненными созданиями. Но существуют и другая разновидность омов – когда-то сбежавшие дикие племена, живущие практически как неандертальцы, создающие немалые проблемы драггам. Они воруют у них имущество и продовольствие, разрушают их материальные и ментальные ценности.
И вот перед нами один из одомашненных омов по имени Терр, живущий у драага-девушки Тивы. Она, удовлетворяя свои мазохистские наклонности, любит наряжать его в различные костюмы, что несказанно бесит ома. Терр убегает от Тивы и в близлежащем парке встречает своего дикого соплеменника из племени Большого Дерева, с которым, пользуясь технологиями хозяев планеты (обучающими наушниками), вбирает в себя их знания и начинает понимать их язык. В итоге он становится лидером борьбы омов за свое равноправие. Они сражаются за теплое место под тусклым солнцем, за жизнь, свободу и равенство, и тогда драгги решают раз и навсегда решить эту последнюю на их планете проблему – полностью уничтожить омов. И диких и домашних.
Сэмпл: https://yadi.sk/i/k7m_zZWbg4tmA
Вики
Качество видео: BDRip 1080p
Формат видео: MKV
Видео: MPEG-4 AVC, 1794x1080, 1.661, 24 кадр/с, 11.0 Mbps
Аудио: Русский 48 kHz, AC3, 3/2 (L,C,R,l,r) + LFE ch, ~448.00 kbps
Аудио 2: Французский 48 kHz, AC3, 3/2 (L,C,R,l,r) + LFE ch, ~448.00 kbps
Аудио 3: Английский FLAC, 48 kHz, 483 Кбит/с, 2 ch
Формат субтитров: softsub (SRT)

MediaInfo исходника

General
ID : 1 (0x1)
Complete name : /media/lx1966/2.0 TB/NNM/Fantastic_Planet/BDMV/STREAM/00000.m2ts
Format : BDAV
Format/Info : Blu-ray Video
File size : 13.0 GiB
Duration : 1h 11mn
Overall bit rate mode : Variable
Overall bit rate : 25.8 Mbps
Maximum Overall bit rate : 35.5 Mbps
Video
ID : 4113 (0x1011)
Menu ID : 1 (0x1)
Format : AVC
Format/Info : Advanced Video Codec
Format profile : High@L4.1
Format settings, CABAC : Yes
Format settings, ReFrames : 4 frames
Codec ID : 27
Duration : 1h 11mn
Bit rate mode : Variable
Maximum bit rate : 30.0 Mbps
Width : 1 920 pixels
Height : 1 080 pixels
Display aspect ratio : 16:9
Frame rate : 24.000 fps
Standard : NTSC
Color space : YUV
Chroma subsampling : 4:2:0
Bit depth : 8 bits
Scan type : Progressive
Color primaries : BT.709
Transfer characteristics : BT.709
Matrix coefficients : BT.709
Audio #1
ID : 4352 (0x1100)
Menu ID : 1 (0x1)
Format : AC-3
Format/Info : Audio Coding 3
Mode extension : CM (complete main)
Format settings, Endianness : Big
Codec ID : 129
Duration : 1h 11mn
Bit rate mode : Constant
Bit rate : 448 Kbps
Channel(s) : 6 channels
Channel positions : Front: L C R, Side: L R, LFE
Sampling rate : 48.0 KHz
Bit depth : 16 bits
Compression mode : Lossy
Stream size : 230 MiB (2%)
Language : Russian
Audio #2
ID : 4353 (0x1101)
Menu ID : 1 (0x1)
Format : AC-3
Format/Info : Audio Coding 3
Mode extension : CM (complete main)
Format settings, Endianness : Big
Codec ID : 129
Duration : 1h 11mn
Bit rate mode : Constant
Bit rate : 448 Kbps
Channel(s) : 6 channels
Channel positions : Front: L C R, Side: L R, LFE
Sampling rate : 48.0 KHz
Bit depth : 16 bits
Compression mode : Lossy
Stream size : 230 MiB (2%)
Language : French
Audio #3
ID : 4354 (0x1102)
Menu ID : 1 (0x1)
Format : DTS
Format/Info : Digital Theater Systems
Format profile : MA / Core
Mode : 16
Format settings, Endianness : Big
Muxing mode : Stream extension
Codec ID : 134
Duration : 1h 11mn
Bit rate mode : Variable
Bit rate : Unknown / 1 509 Kbps
Channel(s) : 2 channels
Channel positions : Front: L R
Sampling rate : 48.0 KHz
Bit depth : 16 bits
Compression mode : Lossless / Lossy
Language : French
Audio #4
ID : 4355 (0x1103)
Menu ID : 1 (0x1)
Format : DTS
Format/Info : Digital Theater Systems
Format profile : MA / Core
Mode : 16
Format settings, Endianness : Big
Muxing mode : Stream extension
Codec ID : 134
Duration : 1h 11mn
Bit rate mode : Variable
Bit rate : Unknown / 1 509 Kbps
Channel(s) : 2 channels
Channel positions : Front: L R
Sampling rate : 48.0 KHz
Bit depth : 16 bits
Compression mode : Lossless / Lossy
Language : English
Text #1
ID : 4608 (0x1200)
Menu ID : 1 (0x1)
Format : PGS
Codec ID : 144
Delay relative to video : 3s 625ms
Language : Russian
Text #2
ID : 4609 (0x1201)
Menu ID : 1 (0x1)
Format : PGS
Codec ID : 144
Language : English

Лог

x264 [info]: frame I:857 Avg QP:21,94 size:193775 PSNR Mean Y:45,70 U:46,92 V:49,35 Avg:46,31 Global:45,61
x264 [info]: frame P:22678 Avg QP:24,43 size: 98626 PSNR Mean Y:41,82 U:43,47 V:46,98 Avg:42,58 Global:41,60
x264 [info]: frame B:79857 Avg QP:26,25 size: 44041 PSNR Mean Y:40,88 U:42,34 V:46,68 Avg:41,64 Global:40,48
x264 [info]: consecutive B-frames: 2,5% 2,4% 5,4% 17,6% 25,1% 47,0%
x264 [info]: mb I I16..4: 4,7% 82,4% 12,9%
x264 [info]: mb P I16..4: 0,7% 16,4% 0,5% P16..4: 49,1% 21,4% 8,0% 0,0% 0,0% skip: 4,0%
x264 [info]: mb B I16..4: 0,1% 1,3% 0,0% B16..8: 54,9% 12,0% 1,9% direct:13,8% skip:16,0% L0:44,4% L1:43,6% BI:12,1%
x264 [info]: 8x8 transform intra:91,9% inter:70,7%
x264 [info]: direct mvs spatial:96,7% temporal:3,3%
x264 [info]: coded y,uvDC,uvAC intra: 91,7% 96,3% 85,5% inter: 47,4% 64,2% 31,0%
x264 [info]: i16 v,h,dc,p: 31% 19% 27% 23%
x264 [info]: i8 v,h,dc,ddl,ddr,vr,hd,vl,hu: 8% 7% 6% 12% 15% 12% 14% 12% 16%
x264 [info]: i4 v,h,dc,ddl,ddr,vr,hd,vl,hu: 9% 8% 3% 11% 14% 13% 14% 12% 17%
x264 [info]: i8c dc,h,v,p: 66% 12% 10% 13%
x264 [info]: Weighted P-Frames: Y:41,7% UV:27,7%
x264 [info]: ref P L0: 42,6% 13,4% 22,1% 16,1% 5,6% 0,2%
x264 [info]: ref B L0: 83,7% 12,4% 3,9%
x264 [info]: ref B L1: 93,9% 6,1%
x264 [info]: SSIM Mean Y:0,9473924 (12,790db)
x264 [info]: PSNR Mean Y:41,122 U:42,625 V:46,769 Avg:41,884 Global:40,730 kb/s:10992,88

MediaInfo

General
Unique ID : 284646074909655070367570984455753661301 (0xD624D70522277B97BD4A9DF368937B75)
Complete name : /media/lx1966/2.0 TB/Мои.рипы/La.planète.sauvage.1973.BDRip.1080.mkv
Format : Matroska
Format version : Version 4 / Version 2
File size : 6.21 GiB
Duration : 1h 11mn
Overall bit rate mode : Variable
Overall bit rate : 12.4 Mbps
Encoded date : UTC 2015-04-14 19:02:53
Writing application : mkvmerge v6.7.0 ('Back to the Ground') 64bit built on Jan 9 2014 18:03:17
Writing library : libebml v1.3.0 + libmatroska v1.4.1
TITLE : La planète sauvage
ARTIST : Barry Bostwick, Jennifer Drake, Eric Baugin
DIRECTOR : René Laloux
DATE_RELEASED : 1973
SUMMARY : Rip by lx1966
GENRE : Animation, Drama
DESCRIPTION : France | Czechoslovakia
SYNOPSIS : Slaves and masters dominate the narrative of the faraway world of Ygam. Set around the lifespan of Ter, a minute human shaped Om slave, and pet, of the giant blue alien Draags. Escaping into the wilderness and with a device used for intellectual advancement of the Draags, Ter finds refuge and support from fellow Om's and using the learning tool, he finds that knowledge is power and then sets to use the new found knowledge to revolt against the Draag masters... / / Где-то в глубинах космоса затерялась странная планета Игам. Правят ею драги - гигантские голубые существа с красными глазами, обладающие сверхвысоким уровнем развития. Кроме них на Игаме живут омы, розовотелые миниатюрные гуманоиды - одомашненные игрушки драгов. Постепенно на Игаме разворачивается борьба угнетенных омов против своих хозяев-гигантов за теплое место под тусклым солнцем, за жизнь и свободу. В итоге драги решают полностью уничтожить омов...
Video
ID : 1
Format : AVC
Format/Info : Advanced Video Codec
Format profile : High@L4.0
Format settings, CABAC : Yes
Format settings, ReFrames : 4 frames
Codec ID : V_MPEG4/ISO/AVC
Duration : 1h 11mn
Nominal bit rate : 11.0 Mbps
Width : 1 794 pixels
Height : 1 080 pixels
Display aspect ratio : 1.661
Frame rate mode : Constant
Frame rate : 24.000 fps
Color space : YUV
Chroma subsampling : 4:2:0
Bit depth : 8 bits
Scan type : Progressive
Bits/(Pixel*Frame) : 0.237
Title : Режиссёр: Рене Лалу / Rene Laloux
Writing library : x264 core 142 r2389 956c8d8
Encoding settings : cabac=1 / ref=4 / deblock=1:-3:-3 / analyse=0x3:0x133 / me=umh / subme=9 / psy=1 / psy_rd=1,20:0,20 / mixed_ref=1 / me_range=24 / chroma_me=1 / trellis=2 / 8x8dct=1 / cqm=0 / deadzone=21,11 / fast_pskip=0 / chroma_qp_offset=-3 / threads=6 / lookahead_threads=1 / sliced_threads=0 / nr=0 / decimate=0 / interlaced=0 / bluray_compat=0 / constrained_intra=0 / bframes=5 / b_pyramid=2 / b_adapt=2 / b_bias=0 / direct=3 / weightb=1 / open_gop=0 / weightp=2 / keyint=240 / keyint_min=24 / scenecut=40 / intra_refresh=0 / rc_lookahead=60 / rc=2pass / mbtree=0 / bitrate=11000 / ratetol=1,0 / qcomp=0,60 / qpmin=0 / qpmax=69 / qpstep=4 / cplxblur=20,0 / qblur=0,5 / vbv_maxrate=20000 / vbv_bufsize=25000 / nal_hrd=none / filler=0 / ip_ratio=1,40 / pb_ratio=1,30 / aq=1:0,70
Language : French
Default : Yes
Forced : No
Color primaries : BT.709
Transfer characteristics : BT.709
Matrix coefficients : BT.709
Audio #1
ID : 2
Format : AC-3
Format/Info : Audio Coding 3
Mode extension : CM (complete main)
Format settings, Endianness : Big
Codec ID : A_AC3
Duration : 1h 11mn
Bit rate mode : Constant
Bit rate : 448 Kbps
Channel(s) : 6 channels
Channel positions : Front: L C R, Side: L R, LFE
Sampling rate : 48.0 KHz
Bit depth : 16 bits
Compression mode : Lossy
Stream size : 230 MiB (4%)
Title : 48 kHz, AC3, 3/2 (L,C,R,l,r) + LFE ch, ~448.00 kbps |Многоголосый закадровый, R5|
Language : Russian
Default : Yes
Forced : No
Audio #2
ID : 3
Format : AC-3
Format/Info : Audio Coding 3
Mode extension : CM (complete main)
Format settings, Endianness : Big
Codec ID : A_AC3
Duration : 1h 11mn
Bit rate mode : Constant
Bit rate : 448 Kbps
Channel(s) : 6 channels
Channel positions : Front: L C R, Side: L R, LFE
Sampling rate : 48.0 KHz
Bit depth : 16 bits
Compression mode : Lossy
Stream size : 230 MiB (4%)
Title : 48 kHz, AC3, 3/2 (L,C,R,l,r) + LFE ch, ~448.00 kbps
Language : French
Default : No
Forced : No
Audio #3
ID : 4
Format : FLAC
Format/Info : Free Lossless Audio Codec
Codec ID : A_FLAC
Duration : 1h 11mn
Bit rate mode : Variable
Channel(s) : 2 channels
Sampling rate : 48.0 KHz
Bit depth : 16 bits
Title : FLAC, 48 kHz, 483 Кбит/с, 2 ch
Writing library : libFLAC 1.3.0 (UTC 2013-05-26)
Language : English
Default : No
Forced : No
Text
ID : 5
Format : UTF-8
Codec ID : S_TEXT/UTF8
Codec ID/Info : UTF-8 Plain Text
Language : English
Default : No
Forced : No

Сравнение

Исходник рип
Исходник рип
Исходник рип

Скриншот c названием фильма




Показать сообщения:    

Текущее время: 07-Дек 23:13

Часовой пояс: UTC + 3


Вы не можете начинать темы
Вы не можете отвечать на сообщения
Вы не можете редактировать свои сообщения
Вы не можете удалять свои сообщения
Вы не можете голосовать в опросах
Вы не можете прикреплять файлы к сообщениям
Вы не можете скачивать файлы