Сгустки / Nuggets (Андреас Хюкаде / Andreas Hykade) [2014, Германия, авторская анимация, DVDRip]


 

[Цитировать]

Сгустки / Nuggets
Страна: Германия
Жанр: авторская анимация
Год выпуска: 2014
Продолжительность: 00:05:05
Перевод: не требуется
Cубтитры: нет
Режиссёр: Андреас Хюкаде / Andreas Hykade
Описание: Птица киви (как известно, нелетающая) идет по дороге, поглощая встречающиеся на пути золотистые сгустки. Они позволяют ей ненадолго испытывать чувство полёта, но с каждым разом приземление становится более жёстким...
Образный показ сущности наркомании.
Качество видео: DVDRip
Формат видео: AVI
Видео: 935 kbps, 704х400 (16:9), 25.000 fps, MPEG-4 Visual (XviD)
Аудио: 128 kbps, 44.1 kHz, 2 channels, MPEG Audio (MP3)

MediaInfo

General
Complete name : Nuggets (2014).avi
Format : AVI
Format/Info : Audio Video Interleave
File size : 39.1 MiB
Duration : 5mn 5s
Overall bit rate : 1 073 Kbps
Writing application : VirtualDubModRus 1.5.10.2 (build 2542/release)
Writing library : VirtualDubMod build 2542/release
Video
ID : 0
Format : MPEG-4 Visual
Format profile : Advanced Simple@L5
Format settings, BVOP : 2
Format settings, QPel : No
Format settings, GMC : No warppoints
Format settings, Matrix : Custom
Codec ID : XVID
Codec ID/Hint : XviD
Duration : 5mn 5s
Bit rate : 935 Kbps
Width : 704 pixels
Height : 400 pixels
Display aspect ratio : 16:9
Frame rate : 25.000 fps
Color space : YUV
Chroma subsampling : 4:2:0
Bit depth : 8 bits
Scan type : Progressive
Compression mode : Lossy
Bits/(Pixel*Frame) : 0.133
Stream size : 34.0 MiB (87%)
Writing library : XviD 65
Audio
ID : 1
Format : MPEG Audio
Format version : Version 1
Format profile : Layer 3
Mode : Joint stereo
Mode extension : MS Stereo
Codec ID : 55
Codec ID/Hint : MP3
Duration : 5mn 5s
Bit rate mode : Constant
Bit rate : 128 Kbps
Channel(s) : 2 channels
Sampling rate : 44.1 KHz
Compression mode : Lossy
Stream size : 4.66 MiB (12%)
Alignment : Split accross interleaves
Interleave, duration : 40 ms (1.00 video frame)
Interleave, preload duration : 500 ms
Writing library : LAME3.99r
Encoding settings : -m j -V 4 -q 3 -lowpass 17 -b 128

Скриншот c названием фильма

Скриншоты




Показать сообщения:    

Текущее время: 03-Дек 09:50

Часовой пояс: UTC + 3


Вы не можете начинать темы
Вы не можете отвечать на сообщения
Вы не можете редактировать свои сообщения
Вы не можете удалять свои сообщения
Вы не можете голосовать в опросах
Вы не можете прикреплять файлы к сообщениям
Вы не можете скачивать файлы