Заклятие / Вызов / Invocation (Роберт Морган / Robert Morgan) [2013, Великобритания, авторская анимация, ужасы, WEBRip-AVC]


 

[Цитировать]

Заклятие / Вызов / Invocation
Страна: Великобритания
Жанр: авторская анимация, ужасы
Год выпуска: 2013
Продолжительность: 00:03:10
Перевод: не требуется
Cубтитры: нет
Режиссёр: Роберт Морган / Robert Morgan
В ролях: Робин Кинг / Robin King
Описание: Готовясь к съёмке кукольного фильма, мультипликатор заряжает плёнку в камеру и случайно ранит палец. Кровь попавшая в механизм соединяется с поступающими в камеру изображениями, что производит эффект заклятия и генерирует внутри новое агрессивное создание...
Качество видео: WEBRip-AVC
Формат видео: MP4
Видео: 1199 kbps, 1280х720 (16:9), 25.000 fps, AVC (High@L3.1)
Аудио: 192 kbps, 44.1 kHz, 2 channels, AAC (LC)

MediaInfo

General
Complete name : Invocation (2013).mp4
Format : MPEG-4
Format profile : Base Media / Version 2
Codec ID : mp42
File size : 31.7 MiB
Duration : 3mn 10s
Overall bit rate mode : Variable
Overall bit rate : 1 394 Kbps
Encoded date : UTC 2014-03-02 06:15:35
Tagged date : UTC 2014-03-02 06:15:35
gsst : 0
gstd : 191006
gssd : B4A7DDAE8MH1427463189272451
gshh : r8---sn-4g57kuer.googlevideo.com
Video
ID : 1
Format : AVC
Format/Info : Advanced Video Codec
Format profile : High@L3.1
Format settings, CABAC : Yes
Format settings, ReFrames : 1 frame
Codec ID : avc1
Codec ID/Info : Advanced Video Coding
Duration : 3mn 10s
Bit rate : 1 199 Kbps
Maximum bit rate : 2 862 Kbps
Width : 1 280 pixels
Height : 720 pixels
Display aspect ratio : 16:9
Frame rate mode : Constant
Frame rate : 25.000 fps
Color space : YUV
Chroma subsampling : 4:2:0
Bit depth : 8 bits
Scan type : Progressive
Bits/(Pixel*Frame) : 0.052
Stream size : 27.3 MiB (86%)
Tagged date : UTC 2014-03-02 06:15:37
Audio
ID : 2
Format : AAC
Format/Info : Advanced Audio Codec
Format profile : LC
Codec ID : 40
Duration : 3mn 10s
Bit rate mode : Variable
Bit rate : 192 Kbps
Maximum bit rate : 201 Kbps
Channel(s) : 2 channels
Channel positions : Front: L R
Sampling rate : 44.1 KHz
Compression mode : Lossy
Stream size : 4.37 MiB (14%)
Title : IsoMedia File Produced by Google, 5-11-2011
Encoded date : UTC 2014-03-02 06:15:36
Tagged date : UTC 2014-03-02 06:15:37

Скриншот c названием фильма

Скриншоты




Показать сообщения:    

Текущее время: 04-Дек 17:20

Часовой пояс: UTC + 3


Вы не можете начинать темы
Вы не можете отвечать на сообщения
Вы не можете редактировать свои сообщения
Вы не можете удалять свои сообщения
Вы не можете голосовать в опросах
Вы не можете прикреплять файлы к сообщениям
Вы не можете скачивать файлы