О, Вилли... / Oh Willy... (Эмма де Свэф, Марк Джеймс Рулс / Emma De Swaef, Marc James Roels) [2012, Бельгия, Франция, Нидерланды, авторская анимация, WEBRip]


 

[Цитировать]

О, Вилли... / Oh Willy...
Страна: Бельгия, Франция, Нидерланды
Жанр: авторская анимация
Год выпуска: 2012
Продолжительность: 00:16:52
Перевод: не требуется
Cубтитры: нет
Режиссёры: Эмма де Свэф, Марк Джеймс Рулс / Emma De Swaef, Marc James Roels
Описание: Лысеющий толстячок Вилли приезжает в нудистский кемпинг к своей умирающей матери. Здесь прошло его детство и остались не лучшие воспоминания. Вилли не разделяет идеологию нудистов. Он уходит на прогулку в лес, где неожиданно попадает в лапы огромного мохнатого существа...
Доп. информация: 23 фестивальных награды
Качество видео: WEBRip
Формат видео: AVI
Видео: 700 kbps, 608х480 (5:4), 25.000 fps, MPEG-4 Visual (XviD)
Аудио: 128 kbps, 44.1 kHz, 2 channels, MPEG Audio (MP3)

MediaInfo

General
Complete name : Oh Willy... (2012).avi
Format : AVI
Format/Info : Audio Video Interleave
File size : 101 MiB
Duration : 16mn 52s
Overall bit rate : 841 Kbps
Writing application : Lavf55.33.100
Video
ID : 0
Format : MPEG-4 Visual
Format profile : Advanced Simple@L4
Format settings, BVOP : No
Format settings, QPel : No
Format settings, GMC : No warppoints
Format settings, Matrix : Default (H.263)
Codec ID : XVID
Codec ID/Hint : XviD
Duration : 16mn 52s
Bit rate : 700 Kbps
Width : 608 pixels
Height : 480 pixels
Display aspect ratio : 5:4
Frame rate : 25.000 fps
Color space : YUV
Chroma subsampling : 4:2:0
Bit depth : 8 bits
Scan type : Progressive
Compression mode : Lossy
Bits/(Pixel*Frame) : 0.096
Stream size : 84.5 MiB (83%)
Writing library : XviD 64
Audio
ID : 1
Format : MPEG Audio
Format version : Version 1
Format profile : Layer 3
Mode : Joint stereo
Mode extension : MS Stereo
Codec ID : 55
Codec ID/Hint : MP3
Duration : 16mn 51s
Bit rate mode : Constant
Bit rate : 128 Kbps
Channel(s) : 2 channels
Sampling rate : 44.1 KHz
Compression mode : Lossy
Stream size : 15.4 MiB (15%)
Alignment : Aligned on interleaves
Interleave, duration : 26 ms (0.65 video frame)
Interleave, preload duration : 26 ms
Writing library : LAMEЄЄ6Fwf

Скриншот c названием фильма

Скриншоты




Показать сообщения:    

Текущее время: 11-Дек 16:52

Часовой пояс: UTC + 3


Вы не можете начинать темы
Вы не можете отвечать на сообщения
Вы не можете редактировать свои сообщения
Вы не можете удалять свои сообщения
Вы не можете голосовать в опросах
Вы не можете прикреплять файлы к сообщениям
Вы не можете скачивать файлы