Хармониум (Дмитрий Лазарев) [2009, Россия, авторская анимация, экранизация, WEBRip]


 

[Цитировать]

Хармониум
Страна: Россия
Жанр: авторская анимация, экранизация
Год выпуска: 2009
Продолжительность: 00:25:02
Cубтитры: нет
Режиссёр: Дмитрий Лазарев
Описание: Компиляция из рассказов, пьес и стихов Даниила Хармса.
Солидный представитель жилконторы приходит в коммунальную квартиру, где проживает Хармс, и попадает на территорию тотального абсурда.
Качество видео: WEBRip
Формат видео: AVI
Видео: 1814 kbps, 704х528 (4:3), 25.000 fps, MPEG-4 Visual (XviD)
Аудио: 192 kbps, 48.0 kHz, 16 bits, 2 channels, AC-3

MediaInfo

General
Complete name : Хармониум (2009).avi
Format : AVI
Format/Info : Audio Video Interleave
File size : 361 MiB
Duration : 25mn 2s
Overall bit rate : 2 016 Kbps
Writing application : VirtualDubModRus 1.5.10.2 (build 2542/release)
Writing library : VirtualDubMod build 2542/release
Video
ID : 0
Format : MPEG-4 Visual
Format profile : Advanced Simple@L5
Format settings, BVOP : 2
Format settings, QPel : No
Format settings, GMC : No warppoints
Format settings, Matrix : Custom
Codec ID : XVID
Codec ID/Hint : XviD
Duration : 25mn 2s
Bit rate : 1 814 Kbps
Width : 704 pixels
Height : 528 pixels
Display aspect ratio : 4:3
Frame rate : 25.000 fps
Color space : YUV
Chroma subsampling : 4:2:0
Bit depth : 8 bits
Scan type : Progressive
Compression mode : Lossy
Bits/(Pixel*Frame) : 0.195
Stream size : 325 MiB (90%)
Writing library : XviD 65
Audio
ID : 1
Format : AC-3
Format/Info : Audio Coding 3
Mode extension : CM (complete main)
Format settings, Endianness : Big
Codec ID : 2000
Duration : 25mn 2s
Bit rate mode : Constant
Bit rate : 192 Kbps
Channel(s) : 2 channels
Channel positions : Front: L R
Sampling rate : 48.0 KHz
Bit depth : 16 bits
Compression mode : Lossy
Stream size : 34.4 MiB (10%)
Alignment : Split accross interleaves
Interleave, duration : 40 ms (1.00 video frame)
Interleave, preload duration : 500 ms

Скриншот c названием фильма

Скриншоты




Показать сообщения:    

Текущее время: 07-Дек 13:34

Часовой пояс: UTC + 3


Вы не можете начинать темы
Вы не можете отвечать на сообщения
Вы не можете редактировать свои сообщения
Вы не можете удалять свои сообщения
Вы не можете голосовать в опросах
Вы не можете прикреплять файлы к сообщениям
Вы не можете скачивать файлы