Пустая земля / Terre d'ecueil / Hollow Land (Мишель Кранот / Michelle Kranot, Ури Кранот / Uri Kranot) [2013, Дания, Канада, Франция, Израиль, экспрессионизм, утопия, анимация, короткий метр, HDTVRip-AVC]


 

[Цитировать]

Пустая земля
Terre d'écueil- Страна: Дания, Канада, Франция, Израиль
Жанр: экспрессионизм, утопия, анимация, короткий метр
Год выпуска: 2013
Продолжительность: 00:13:22
Перевод: Субтитры (ralf124c41+)
Cубтитры: русские
Оригинальная аудиодорожка: музыкальное сопровождение и фоновые звукиРежиссер: Мишель Кранот / Michelle Kranot, Ури Кранот / Uri Kranot
В ролях: Рене Коссет / Renee Cossette, Жан Арви / Jean Harvey, Марсель Жаннен / Marcel Jeannin
Описание: Краноты имеют много претензий к Израилю, сейчас они живут в Дании, и новый фильм в копродукции с Канадой они сделали именно с позиции еврея из известного анекдота: "А нет у вас другого глобуса?". В общем, любая земля пуста, всюду государство давит и непонятно, где жить. Меня в этом фильме порадовало, что к Кранотам хоть сколько-то вернулось чувство юмора, а то их предыдущие фильмы, несмотря на качество, смотреть было тяжеловато. (dinagoder)
Доп. информация: Arte HD
Награды: номинация Genie Awards 2014 на лучший анимационный короткометражный фильм; приз Cartoon D'or - Encounters International Film Festival 2013; приз Альберто Санчеса за лучший иностранный фильм Huesca Film Festival 2014; номинация на приз "Золотая жар-птица" за лучшую короткометражку Hong Kong International Film Festival 2013; номинация на Гран-при в секции анимационных фильмов Гран-при Tallinn Black Nights Film Festival 2013.

Качество видео: HDTVRip-AVC
Формат видео: MKV
Видео: AVC (H.264), 1152x640 (16:9), 25 fps, ~2500 kbps avg, 0.136 bit/pixel
Аудио: AC3, 2 ch, 48 kHz, ~192.00 kbps avg
Формат субтитров: softsub (SSA/ASS)
Доп. информация о субтитрах: форсированные

Пример субтитров

Dialogue: 0,0:00:02.02,0:00:05.01,Default,,0,0,0,,{\pos(641,665)}Датское телевидение\NНациональная вещательная корпорация Канады\Nпри участии канала Arte Франция\NпредставляютDialogue: 0,0:00:31.31,0:00:37.38,Default,,0,0,0,,{\pos(355,321)}ПУСТАЯ ЗЕМЛЯDialogue: 0,0:00:39.29,0:00:41.48,Default,,0,0,0,,{\pos(644,424)}ПрибытиеDialogue: 0,0:02:14.47,0:02:17.66,Default,,0,0,0,,{\pos(642,432)}Добро пожаловать в УтопиюDialogue: 0,0:03:01.41,0:03:04.62,Default,,0,0,0,,{\pos(641,363)}Берта и СоломонDialogue: 0,0:04:41.71,0:04:43.99,Default,,0,0,0,,{\pos(637,437)}БудниDialogue: 0,0:08:12.93,0:08:15.96,Default,,0,0,0,,{\pos(644,437)}ОсмотрDialogue: 0,0:08:32.83,0:08:35.26,Default,,0,0,0,,{\pos(589,684)}17 ноябряDialogue: 0,0:09:14.87,0:09:16.59,Default,,0,0,0,,{\pos(640,443)}На арене КолизеяDialogue: 0,0:09:45.31,0:09:48.05,Default,,0,0,0,,{\pos(652,656)}Зрители скандируют:\N"Не на жизнь, а на смерть!"Dialogue: 0,0:10:24.52,0:10:27.71,Default,,0,0,0,,{\pos(637,441)}БегствоDialogue: 0,0:12:14.62,0:12:17.57,Default,,0,0,0,,{\pos(995,339)\i1}Авторы сценария,\Nрежиссеры и аниматоры{\i0}\NМишель и Ури КраноDialogue: 0,0:12:18.48,0:12:21.95,Default,,0,0,0,,{\pos(997,522)\i1}Музыка{\i0}\NУри Крано\N{\i1}Аранжировка и сведение звука{\i0}\NНорман Роже\NПьер Ив ДрапоDialogue: 0,0:12:32.61,0:12:37.59,Default,,0,0,0,,{\pos(650,473)\i1}Роли озвучивали{\i0}\NРене Коссетт\NЖан Арви\NМарсель ЖанненDialogue: 0,0:12:56.63,0:12:58.54,Default,,0,0,0,,{\pos(656,586)}Продюсирование фильма при участии\NФонда экспериментального кино\NЦентра современного искусства, Тель-Авив,\Nпри содействии Израильского совета кинематографии

MediaInfo

Общее
Уникальный идентификатор : 170472327828014849887692022331240584156 (0x803FC6AD8755DE8EA0CE3F9A085793DC)
Полное имя : E:\My Torrents 2\[apreder]MINI_MOVIES_09\[apreder]MM_Terre_d'ecueil(2013)HDTVRip.mkv
Формат : Matroska
Версия формата : Version 2
Размер файла : 258 Мбайт
Продолжительность : 13 м.
Общий поток : 2695 Кбит/сек
Дата кодирования : UTC 2015-03-01 09:12:15
Программа кодирования : mkvmerge v7.6.0 ('Garden of Dreams') 64bit built on Feb 8 2015 13:04:34
Библиотека кодирования : libebml v1.3.1 + libmatroska v1.4.2
Видео
Идентификатор : 1
Формат : AVC
Формат/Информация : Advanced Video Codec
Профиль формата : High@L4.1
Параметр CABAC формата : Да
Параметр ReFrames формата : 11 кадров
Идентификатор кодека : V_MPEG4/ISO/AVC
Продолжительность : 13 м.
Битрейт : 2500 Кбит/сек
Ширина : 1152 пикселя
Высота : 640 пикселей
Соотношение сторон : 16:9
Режим частоты кадров : Постоянный
Частота кадров : 25,000 кадров/сек
Цветовое пространство : YUV
Субдискретизация насыщенности : 4:2:0
Битовая глубина : 8 бит
Тип развёртки : Прогрессивная
Бит/(Пиксели*Кадры) : 0.136
Размер потока : 234 Мбайт (91%)
Библиотека кодирования : x264 core 144 r2525 40bb568
Настройки программы : cabac=1 / ref=11 / deblock=1:-1:-1 / analyse=0x3:0x133 / me=umh / subme=10 / psy=1 / psy_rd=1.00:0.15 / mixed_ref=1 / me_range=24 / chroma_me=1 / trellis=2 / 8x8dct=1 / cqm=0 / deadzone=21,11 / fast_pskip=1 / chroma_qp_offset=-3 / threads=6 / lookahead_threads=1 / sliced_threads=0 / nr=0 / decimate=1 / interlaced=0 / bluray_compat=0 / constrained_intra=0 / bframes=8 / b_pyramid=2 / b_adapt=2 / b_bias=0 / direct=3 / weightb=1 / open_gop=0 / weightp=2 / keyint=250 / keyint_min=25 / scenecut=40 / intra_refresh=0 / rc_lookahead=60 / rc=2pass / mbtree=1 / bitrate=2500 / ratetol=1.0 / qcomp=0.60 / qpmin=0 / qpmax=69 / qpstep=4 / cplxblur=20.0 / qblur=0.5 / vbv_maxrate=62500 / vbv_bufsize=78125 / nal_hrd=none / filler=0 / ip_ratio=1.40 / aq=1:1.00
Default : Да
Forced : Нет
Аудио
Идентификатор : 2
Формат : AC-3
Формат/Информация : Audio Coding 3
Расширение режима : CM (complete main)
Параметр Endianness формата : Big
Идентификатор кодека : A_AC3
Продолжительность : 13 м.
Вид битрейта : Постоянный
Битрейт : 192 Кбит/сек
Каналы : 2 канала
Расположение каналов : Front: L R
Частота : 48,0 КГц
Битовая глубина : 16 бит
Метод сжатия : С потерями
Размер потока : 18,4 Мбайт (7%)
Default : Да
Forced : Нет
Текст
Идентификатор : 3
Формат : ASS
Идентификатор кодека : S_TEXT/ASS
Идентификатор кодека/Информация : Advanced Sub Station Alpha
Метод сжатия : Без потерь
Язык : Russian
Default : Да
Forced : Нет

Скриншот c названием фильма

Скриншоты

Резервные скриншоты

-[2'145]



Показать сообщения:    

Текущее время: 04-Дек 00:47

Часовой пояс: UTC + 3


Вы не можете начинать темы
Вы не можете отвечать на сообщения
Вы не можете редактировать свои сообщения
Вы не можете удалять свои сообщения
Вы не можете голосовать в опросах
Вы не можете прикреплять файлы к сообщениям
Вы не можете скачивать файлы