Парад / Parade (Пьер-Эммануэль Лие / Pierre-Emmanuel Lyet) [2009, Франция, авторская анимация, WEBRip] original + rus sub


 

[Цитировать]

Парад / Parade
Страна: Франция
Жанр: авторская анимация
Год выпуска: 2009
Продолжительность: 00:08:06
Перевод: субтитры (alex.n42)
Cубтитры: русские
Режиссёр: Пьер-Эммануэль Лие / Pierre-Emmanuel Lyet
Описание: Этот мультфильм имеет один из самых оригинальных дизайнов в истории анимации. Его персонажи существуют в полной темноте, видны лишь их глаза. И только главный герой выделяется на общем фоне за счёт своих чувств, которые сопутствуют ему в виде этакого парада разноцветных существ. В жизни такое выделение ему лишь мешает. Поможет ли оно ему в любви?
Доп. информация: 15 фестивальных наград
Качество видео: WEBRip
Формат видео: AVI
Видео: 939 kbps, 720х400 (16:9), 25.000 fps, MPEG-4 Visual (XviD)
Аудио: 128 kbps, 48.0 kHz, 2 channels, MPEG Audio (MP3)
Формат субтитров: французские - hardsub, русские - softsub (SRT)

MediaInfo

General
Complete name : Parade (2009).avi
Format : AVI
Format/Info : Audio Video Interleave
File size : 62.4 MiB
Duration : 8mn 6s
Overall bit rate : 1 077 Kbps
Writing application : VirtualDubModRus 1.5.10.2 (build 2542/release)
Writing library : VirtualDubMod build 2542/release
Video
ID : 0
Format : MPEG-4 Visual
Format profile : Advanced Simple@L5
Format settings, BVOP : 2
Format settings, QPel : No
Format settings, GMC : No warppoints
Format settings, Matrix : Custom
Codec ID : XVID
Codec ID/Hint : XviD
Duration : 8mn 6s
Bit rate : 939 Kbps
Width : 720 pixels
Height : 400 pixels
Display aspect ratio : 16:9
Frame rate : 25.000 fps
Color space : YUV
Chroma subsampling : 4:2:0
Bit depth : 8 bits
Scan type : Progressive
Compression mode : Lossy
Bits/(Pixel*Frame) : 0.130
Stream size : 54.4 MiB (87%)
Writing library : XviD 65
Audio
ID : 1
Format : MPEG Audio
Format version : Version 1
Format profile : Layer 3
Mode : Joint stereo
Codec ID : 55
Codec ID/Hint : MP3
Duration : 8mn 6s
Bit rate mode : Constant
Bit rate : 128 Kbps
Channel(s) : 2 channels
Sampling rate : 48.0 KHz
Compression mode : Lossy
Stream size : 7.42 MiB (12%)
Alignment : Aligned on interleaves
Interleave, duration : 40 ms (1.00 video frame)
Interleave, preload duration : 504 ms
Writing library : LAME3.99r
Encoding settings : -m j -V 4 -q 3 -lowpass 17 -b 128

Скриншот c названием фильма

Скриншоты




Показать сообщения:    

Текущее время: 05-Дек 01:19

Часовой пояс: UTC + 3


Вы не можете начинать темы
Вы не можете отвечать на сообщения
Вы не можете редактировать свои сообщения
Вы не можете удалять свои сообщения
Вы не можете голосовать в опросах
Вы не можете прикреплять файлы к сообщениям
Вы не можете скачивать файлы