ИльфиПетров (Роман Либеров) [2013, Россия, Документальный, SATRip]


 

[Цитировать]

ИльфиПетров
Страна: Россия
Жанр: Документальный
Год выпуска: 2013
Продолжительность: 01:33:43
Перевод: Не требуется
Cубтитры: нет
Режиссер: Роман Либеров
В ролях: Сергей Маковецкий, Игорь Золотовицкий, Леонид Каневский, Михаил Ефремов, Полина Агуреева, Екатерина Федулова, Дэвид Гамбург, Дмитрий Хоронько, Светлана Камынина, Даниил Щебланов
Описание: "12 стульев", "Золотой телёнок", "Одноэтажная Америка", "1001 день или новая Шахерезада", "Невероятные истории из жизни города Колоколамска" - блистательные произведения писательского дуэта, воспринимающегося иногда как один человек: ИЛЬФИПЕТРОВ. Кто не слышал этой "фамилии"! Кто не знает о приключениях Остапа Бендера? О зашитых в стуле бриллиантах? О подпольном миллионере Корейко?"Лёд тронулся, господа присяжные заседатели!", "Командовать парадом буду я!"... Произведения Ильфа и Петрова разошлись на цитаты как, пожалуй, никакие другие. Как выглядели Илья Ильф и Евгений Петров? Из какой реальности "вышивали" свои бессмертные тексты? Почему у приключений Остапа не появилось продолжения? Ответы на эти и многие другие вопросы зрители найдут в этом фильме, который, наконец, разделит одного автора на двух отдельных людей...
Качество видео: SATRip
Формат видео: AVI
Видео: XviD, 704x448, 16:10, 1799 kbps, 25.000 fps
Аудио: AC3, 48 kHz, 192 kbps, 2 ch.

MediaInfo

Общее
Формат : AVI
Формат/Информация : Audio Video Interleave
Размер файла : 1,31 Гбайт
Продолжительность : 1 ч. 33 м.
Общий поток : 2002 Кбит/сек
Программа кодирования : VirtualDubMod 1.5.10.3 | www.virtualdub-fr.org || (build 2550/release)
Библиотека кодирования : VirtualDubMod build 2550/release
Видео
Идентификатор : 0
Формат : MPEG-4 Visual
Профиль формата : Advanced Simple@L5
Параметр BVOP формата : 2
Параметр QPel формата : Нет
Параметр GMC формата : Без точки перехода
Параметр матрицы формата : Default (H.263)
Идентификатор кодека : XVID
Идентификатор кодека/Подсказка : XviD
Продолжительность : 1 ч. 33 м.
Битрейт : 1800 Кбит/сек
Ширина : 704 пикселя
Высота : 448 пикселей
Соотношение сторон : 16:10
Частота кадров : 25,000 кадров/сек
Цветовое пространство : YUV
Субдискретизация насыщенности : 4:2:0
Битовая глубина : 8 бит
Тип развёртки : Прогрессивная
Метод сжатия : С потерями
Бит/(Пиксели*Кадры) : 0.228
Размер потока : 1,18 Гбайт (90%)
Библиотека кодирования : XviD 1.2.1 (UTC 2008-12-04)
Аудио
Идентификатор : 1
Формат : AC-3
Формат/Информация : Audio Coding 3
Расширение режима : CM (complete main)
Параметр Endianness формата : Big
Идентификатор кодека : 2000
Продолжительность : 1 ч. 33 м.
Вид битрейта : Постоянный
Битрейт : 192 Кбит/сек
Каналы : 2 канала
Расположение каналов : Front: L R
Частота : 48,0 КГц
Битовая глубина : 16 бит
Метод сжатия : С потерями
Размер потока : 129 Мбайт (10%)
Выравнивание : Разделение по промежуткам
Продолжительность промежутка : 40 мс. (1,00 видеокадр)
Время предзагрузки промежутка : 500 мс.

Скриншоты




Показать сообщения:    

Текущее время: 11-Дек 05:23

Часовой пояс: UTC + 3


Вы не можете начинать темы
Вы не можете отвечать на сообщения
Вы не можете редактировать свои сообщения
Вы не можете удалять свои сообщения
Вы не можете голосовать в опросах
Вы не можете прикреплять файлы к сообщениям
Вы не можете скачивать файлы