Сквозь и наружу / Yli ja Ympäri / Over and out (Кари Пиеска, Тапани Толонен, Элина Кулманен / Kari Pieskä, Tapani Tolonen, Elina Kylmänen) [2011, Финляндия, авторская анимация, WEBRip-AVC]


 

[Цитировать]

Сквозь и наружу / Yli ja Ympäri / Over and out
Страна: Финляндия
Жанр: авторская анимация
Год выпуска: 2011
Продолжительность: 00:09:10
Перевод: не требуется
Cубтитры: нет
Режиссёры: Кари Пиеска, Тапани Толонен, Элина Кулманен / Kari Pieskä, Tapani Tolonen, Elina Kylmänen
Описание: Герой этого мультфильма всю жизнь тяготится диктатом своего сварливого отца. Избавиться от этого не так просто - они живут в подводной лодке. Но если терпения больше нет, стремясь к независимости, можно преодолеть любое препятствие. Или нет?
Качество видео: WEBRip-AVC
Формат видео: MP4
Видео: 2482 kbps, 1280х720 (16:9), 25.000 fps, AVC (High@L3.1)
Аудио: 157 kbps, 44.1 kHz, 2 channels, AAC (LC)

MediaInfo

General
Complete name : Yli ja Ympäri (2011).mp4
Format : MPEG-4
Format profile : Base Media
Codec ID : isom
File size : 173 MiB
Duration : 9mn 10s
Overall bit rate mode : Variable
Overall bit rate : 2 642 Kbps
Encoded date : UTC 2012-08-20 14:35:41
Tagged date : UTC 2012-08-21 14:35:43
Video
ID : 1
Format : AVC
Format/Info : Advanced Video Codec
Format profile : High@L3.1
Format settings, CABAC : Yes
Format settings, ReFrames : 4 frames
Codec ID : avc1
Codec ID/Info : Advanced Video Coding
Duration : 9mn 10s
Bit rate : 2 482 Kbps
Maximum bit rate : 7 740 Kbps
Width : 1 280 pixels
Height : 720 pixels
Display aspect ratio : 16:9
Frame rate mode : Constant
Frame rate : 25.000 fps
Color space : YUV
Chroma subsampling : 4:2:0
Bit depth : 8 bits
Scan type : Progressive
Bits/(Pixel*Frame) : 0.108
Stream size : 163 MiB (94%)
Writing library : Vimeo Encoder
Encoded date : UTC 2012-08-20 14:35:41
Tagged date : UTC 2012-08-20 14:35:42
Audio
ID : 2
Format : AAC
Format/Info : Advanced Audio Codec
Format profile : LC
Codec ID : 40
Duration : 9mn 10s
Bit rate mode : Variable
Bit rate : 157 Kbps
Maximum bit rate : 207 Kbps
Channel(s) : 2 channels
Channel positions : Front: L R
Sampling rate : 44.1 KHz
Compression mode : Lossy
Stream size : 10.3 MiB (6%)
Encoded date : UTC 2012-08-20 14:35:42
Tagged date : UTC 2012-08-20 14:35:42

Скриншот c названием фильма

Скриншоты




Показать сообщения:    

Текущее время: 07-Дек 19:20

Часовой пояс: UTC + 3


Вы не можете начинать темы
Вы не можете отвечать на сообщения
Вы не можете редактировать свои сообщения
Вы не можете удалять свои сообщения
Вы не можете голосовать в опросах
Вы не можете прикреплять файлы к сообщениям
Вы не можете скачивать файлы