Игра локтями / Jeu de coudes (Пол Дриссен / Paul Driessen) [1979, Канада, авторская анимация, VHSRip]


 

[Цитировать]

Игра локтями / Jeu de coudes
Страна: Канада
Жанр: авторская анимация
Год выпуска: 1979
Продолжительность: 00:06:32
Перевод: не требуется
Cубтитры: нет
Режиссёр: Пол Дриссен / Paul Driessen
Описание: Правила игры локтями просты: стоящие шеренгой люди, поочерёдно толкаются локтями, пока крайний не свалится в пропасть. Течение этой грустной игры немного разнообразит затесавшийся в шеренгу весёлый клоун. Он играет по своим правилам...
Качество видео: VHSRip
Формат видео: AVI
Видео: 739 kbps, 544х400 (4:3), 25.000 fps, MPEG-4 Visual (XviD)
Аудио: 128 kbps, 44.1 kHz, 2 channels, MPEG Audio (MP3)

MediaInfo

General
Complete name : Jeu de coudes (1979).avi
Format : AVI
Format/Info : Audio Video Interleave
File size : 41.1 MiB
Duration : 6mn 32s
Overall bit rate : 879 Kbps
Writing application : Lavf55.33.100
Video
ID : 0
Format : MPEG-4 Visual
Format profile : Advanced Simple@L4
Format settings, BVOP : No
Format settings, QPel : No
Format settings, GMC : No warppoints
Format settings, Matrix : Default (H.263)
Codec ID : XVID
Codec ID/Hint : XviD
Duration : 6mn 32s
Bit rate : 739 Kbps
Width : 544 pixels
Height : 400 pixels
Display aspect ratio : 4:3
Frame rate : 25.000 fps
Color space : YUV
Chroma subsampling : 4:2:0
Bit depth : 8 bits
Scan type : Progressive
Compression mode : Lossy
Bits/(Pixel*Frame) : 0.136
Stream size : 34.5 MiB (84%)
Writing library : XviD 64
Audio
ID : 1
Format : MPEG Audio
Format version : Version 1
Format profile : Layer 3
Mode : Joint stereo
Mode extension : MS Stereo
Codec ID : 55
Codec ID/Hint : MP3
Duration : 6mn 32s
Bit rate mode : Constant
Bit rate : 128 Kbps
Channel(s) : 2 channels
Sampling rate : 44.1 KHz
Compression mode : Lossy
Stream size : 5.99 MiB (15%)
Alignment : Aligned on interleaves
Interleave, duration : 26 ms (0.65 video frame)
Interleave, preload duration : 26 ms
Writing library : LAME3.99.5

Скриншот c названием фильма

Скриншоты




Показать сообщения:    

Текущее время: 10-Дек 13:50

Часовой пояс: UTC + 3


Вы не можете начинать темы
Вы не можете отвечать на сообщения
Вы не можете редактировать свои сообщения
Вы не можете удалять свои сообщения
Вы не можете голосовать в опросах
Вы не можете прикреплять файлы к сообщениям
Вы не можете скачивать файлы