Аниджем / Anijam (Марв Ньюланд / Marv Newland) [1984, Канада, авторская анимация, DVDRip] original + rus sub


 

[Цитировать]

Аниджем / Anijam
Страна: Канада
Жанр: авторская анимация
Год выпуска: 1984
Продолжительность: 00:09:51
Перевод: субтитры (alex.n42)
Cубтитры: русские
Режиссёр: Марв Ньюланд / Marv Newland
Описание: Фильм представляет из себя анимационный джем-сейшн, воплощённый 22-мя независимыми аниматорами из разных стран. Марв Ньюланд, организовавший этот проект, предложил каждому создать эпизод в полминуты с участием персонажа по имени Фоска.
Участники "Аниджема": Марк Кауслер, Анн Шевалье, Зденко Гашпарович, Макс Бэнна, Салли Крукшанк, Гвидо Манули, Уэйн Моррис, Кай Пиндэл, Хал Фукушима, Джанет Перлман, Дитер Мюллер, Фрэнк Терри, Пер Лигам, Пол Вестер, Пол Дриссен, Гордон Стэнфилд, Кэти Роуз, Брэд Каслор, Фрэнк Ниссен, Казунари Фуруя, Златко Гргич и Марв Ньюланд.
Доп. информация: "Специальный приз жюри" + "Приз зрителей" на фестивале в Оттаве (1984)
Качество видео: DVDRip
Формат видео: AVI
Видео: 1498 kbps, 720х480 (4:3), 29.970 fps, MPEG-4 Visual (XviD)
Аудио: 128 kbps, 48.0 kHz, 2 channels, MPEG Audio (MP3)
Формат субтитров: softsub (SRT)

MediaInfo

General
Complete name : Anijam (1984).avi
Format : AVI
Format/Info : Audio Video Interleave
File size : 116 MiB
Duration : 9mn 51s
Overall bit rate : 1 639 Kbps
Writing application : Lavf51.12.1
Video
ID : 0
Format : MPEG-4 Visual
Format profile : Simple@L1
Format settings, BVOP : No
Format settings, QPel : No
Format settings, GMC : No warppoints
Format settings, Matrix : Default (H.263)
Codec ID : DX50
Codec ID/Hint : DivX 5
Duration : 9mn 51s
Bit rate : 1 498 Kbps
Width : 720 pixels
Height : 480 pixels
Display aspect ratio : 4:3
Frame rate : 29.970 fps
Standard : NTSC
Color space : YUV
Chroma subsampling : 4:2:0
Bit depth : 8 bits
Scan type : Progressive
Compression mode : Lossy
Bits/(Pixel*Frame) : 0.145
Stream size : 106 MiB (91%)
Writing library : Lavc51.40.4
Audio
ID : 1
Format : MPEG Audio
Format version : Version 1
Format profile : Layer 3
Mode : Joint stereo
Mode extension : MS Stereo
Codec ID : 55
Codec ID/Hint : MP3
Duration : 9mn 51s
Bit rate mode : Constant
Bit rate : 128 Kbps
Channel(s) : 2 channels
Sampling rate : 48.0 KHz
Compression mode : Lossy
Stream size : 9.03 MiB (8%)
Alignment : Aligned on interleaves
Interleave, duration : 24 ms (0.72 video frame)
Writing library : LAME3.97

Скриншоты




Показать сообщения:    

Текущее время: 10-Дек 19:43

Часовой пояс: UTC + 3


Вы не можете начинать темы
Вы не можете отвечать на сообщения
Вы не можете редактировать свои сообщения
Вы не можете удалять свои сообщения
Вы не можете голосовать в опросах
Вы не можете прикреплять файлы к сообщениям
Вы не можете скачивать файлы