Ловушка / Katiska (Йони Маннисто, Янне Кукконен, Микко Корхонен / Joni Männistö, Janne Kukkonen, Mikko Korhonen) [2008, Финляндия, анимация, чёрный юмор, WEBRip]


 

[Цитировать]

Ловушка / Katiska
Страна: Финляндия
Жанр: анимация, чёрный юмор
Год выпуска: 2008
Продолжительность: 00:04:32
Перевод: не требуется
Cубтитры: нет
Режиссеры: Йони Маннисто, Янне Кукконен, Микко Корхонен / Joni Männistö, Janne Kukkonen, Mikko Korhonen
Описание: День начался с того, что в аквариуме девочки сдохла рыбка. Потом девочка отправилась кататься на санках, но в замёрзшей проруби она вдруг увидела нечто такое, что заставило её бежать домой и второпях звать отца...
Качество видео: WEBRip
Формат видео: AVI
Видео: 1047 kbps, 640х384 (1.667), 25.000 fps, MPEG-4 Visual (XviD)
Аудио: 128 kbps, 44.1 kHz, 2 channels, MPEG Audio (MP3)

MediaInfo

General
Complete name : Katiska (2008).avi
Format : AVI
Format/Info : Audio Video Interleave
File size : 38.5 MiB
Duration : 4mn 32s
Overall bit rate : 1 185 Kbps
Writing application : VirtualDubMod 1.5.10.3 (build 2550/release)
Writing library : VirtualDubMod build 2550/release
Video
ID : 0
Format : MPEG-4 Visual
Format profile : Advanced Simple@L5
Format settings, BVOP : 2
Format settings, QPel : No
Format settings, GMC : No warppoints
Format settings, Matrix : Custom
Codec ID : XVID
Codec ID/Hint : XviD
Duration : 4mn 32s
Bit rate : 1 047 Kbps
Width : 640 pixels
Height : 384 pixels
Display aspect ratio : 1.667
Frame rate : 25.000 fps
Color space : YUV
Chroma subsampling : 4:2:0
Bit depth : 8 bits
Scan type : Progressive
Compression mode : Lossy
Bits/(Pixel*Frame) : 0.170
Stream size : 34.0 MiB (88%)
Writing library : XviD 65
Audio
ID : 1
Format : MPEG Audio
Format version : Version 1
Format profile : Layer 3
Mode : Joint stereo
Mode extension : MS Stereo
Codec ID : 55
Codec ID/Hint : MP3
Duration : 4mn 32s
Bit rate mode : Constant
Bit rate : 128 Kbps
Channel(s) : 2 channels
Sampling rate : 44.1 KHz
Compression mode : Lossy
Stream size : 4.16 MiB (11%)
Alignment : Split accross interleaves
Interleave, duration : 40 ms (1.00 video frame)
Interleave, preload duration : 500 ms
Writing library : LAME3.99r
Encoding settings : -m j -V 4 -q 3 -lowpass 17 -b 128

Скриншот c названием фильма

Скриншоты




Показать сообщения:    

Текущее время: 11-Дек 11:06

Часовой пояс: UTC + 3


Вы не можете начинать темы
Вы не можете отвечать на сообщения
Вы не можете редактировать свои сообщения
Вы не можете удалять свои сообщения
Вы не можете голосовать в опросах
Вы не можете прикреплять файлы к сообщениям
Вы не можете скачивать файлы