Соловьи в декабре / Nightingales in December (Теодор Ушев / Theodore Ushev) [2011, Канада, авторская анимация, WEBRip-AVC]


 

[Цитировать]

Соловьи в декабре / Nightingales in December
Страна: Канада
Жанр: авторская анимация
Год выпуска: 2011
Продолжительность: 00:02:56
Перевод: не требуется
Cубтитры: нет
Режиссёр: Теодор Ушев / Theodore Ushev
Музыка: "Sunset Rubdown"
Описание: Метафорическая аллюзия о соловьях, обращённых в людей. Что если бы они не улетели на юг, а стали узниками концлагерей?
В качестве эпиграфа - строка из поэмы "Ист Коукер" Т.С. Элиота:
"В моем начале мой конец. Теперь свет падает..."
Доп. информация: Diploma of Merit - Tampere Film Festival (2012)
RPT Onda Curta Award - Monstra Lisbon (2012)
Canadian Film Institute Award for Best Canadian Animation - Ottawa Animation Festival (2012)
Special Mention - Expotoons (2012)
Special Jury Mention - Cinanima Espihno (2012)
Качество видео: WEBRip-AVC
Формат видео: MP4
Видео: 2519 kbps, 1280х720 (16:9), 24.000 fps, AVC (High@L3.1)
Аудио: 158 kbps, 44.1 kHz, 2 channels, AAC (LC)

MediaInfo

General
Complete name : Nightingales in December.mp4
Format : MPEG-4
Format profile : Base Media
Codec ID : isom
File size : 56.3 MiB
Duration : 2mn 56s
Overall bit rate mode : Variable
Overall bit rate : 2 679 Kbps
Encoded date : UTC 2012-02-08 17:39:41
Tagged date : UTC 2012-02-09 17:39:43
Video
ID : 1
Format : AVC
Format/Info : Advanced Video Codec
Format profile : High@L3.1
Format settings, CABAC : Yes
Format settings, ReFrames : 4 frames
Codec ID : avc1
Codec ID/Info : Advanced Video Coding
Duration : 2mn 56s
Bit rate : 2 519 Kbps
Maximum bit rate : 6 339 Kbps
Width : 1 280 pixels
Height : 720 pixels
Display aspect ratio : 16:9
Frame rate mode : Constant
Frame rate : 24.000 fps
Color space : YUV
Chroma subsampling : 4:2:0
Bit depth : 8 bits
Scan type : Progressive
Bits/(Pixel*Frame) : 0.114
Stream size : 52.9 MiB (94%)
Writing library : Vimeo Encoder
Encoded date : UTC 2012-02-08 17:39:41
Tagged date : UTC 2012-02-08 17:39:42
Audio
ID : 2
Format : AAC
Format/Info : Advanced Audio Codec
Format profile : LC
Codec ID : 40
Duration : 2mn 56s
Bit rate mode : Variable
Bit rate : 158 Kbps
Maximum bit rate : 259 Kbps
Channel(s) : 2 channels
Channel positions : Front: L R
Sampling rate : 44.1 KHz
Compression mode : Lossy
Stream size : 3.32 MiB (6%)
Encoded date : UTC 2012-02-08 17:39:41
Tagged date : UTC 2012-02-08 17:39:42

Скриншот c названием фильма

Скриншоты




Показать сообщения:    

Текущее время: 10-Дек 23:31

Часовой пояс: UTC + 3


Вы не можете начинать темы
Вы не можете отвечать на сообщения
Вы не можете редактировать свои сообщения
Вы не можете удалять свои сообщения
Вы не можете голосовать в опросах
Вы не можете прикреплять файлы к сообщениям
Вы не можете скачивать файлы