Щука и кот (Александр Кошелев) [2013, Россия, авторская анимация, WEBRip-AVC]


 

[Цитировать]

Щука и кот
Страна: Россия
Жанр: авторская анимация
Год выпуска: 2013
Продолжительность: 00:11:53
Cубтитры: нет
Режиссёр: Александр Кошелев
Описание: Футуристическое переосмысление одноименной басни Ивана Андреевича Крылова, в которой щука пошла охотиться на мышей вместе с котом.
Авторский проект пермского художника Александра Кошелева, созданный на его студии "Детство дизайн".
Качество видео: WEBRip-AVC
Формат видео: MP4
Видео: 1738 kbps, 1280х720 (16:9), 25.000 fps, AVC (High@L3.1)
Аудио: 192 kbps, 44.1 kHz, 2 channels, AAC (LC)

MediaInfo

General
Complete name : Щука и Кот (2013).mp4
Format : MPEG-4
Format profile : Base Media / Version 2
Codec ID : mp42
File size : 164 MiB
Duration : 11mn 53s
Overall bit rate mode : Variable
Overall bit rate : 1 933 Kbps
Encoded date : UTC 2014-06-11 02:28:08
Tagged date : UTC 2014-06-11 02:28:08
gsst : 0
gstd : 713733
gssd : BADC23065MH1412430571776605
gshh : r18---sn-5go7dn7d.googlevideo.com
Video
ID : 1
Format : AVC
Format/Info : Advanced Video Codec
Format profile : High@L3.1
Format settings, CABAC : Yes
Format settings, ReFrames : 1 frame
Codec ID : avc1
Codec ID/Info : Advanced Video Coding
Duration : 11mn 53s
Bit rate : 1 738 Kbps
Maximum bit rate : 7 084 Kbps
Width : 1 280 pixels
Height : 720 pixels
Display aspect ratio : 16:9
Frame rate mode : Constant
Frame rate : 25.000 fps
Color space : YUV
Chroma subsampling : 4:2:0
Bit depth : 8 bits
Scan type : Progressive
Bits/(Pixel*Frame) : 0.075
Stream size : 148 MiB (90%)
Tagged date : UTC 2014-06-11 02:29:37
Audio
ID : 2
Format : AAC
Format/Info : Advanced Audio Codec
Format profile : LC
Codec ID : 40
Duration : 11mn 53s
Bit rate mode : Variable
Bit rate : 192 Kbps
Maximum bit rate : 202 Kbps
Channel(s) : 2 channels
Channel positions : Front: L R
Sampling rate : 44.1 KHz
Compression mode : Lossy
Stream size : 16.3 MiB (10%)
Title : IsoMedia File Produced by Google, 5-11-2011
Encoded date : UTC 2014-06-11 02:28:45
Tagged date : UTC 2014-06-11 02:29:37

Скриншот c названием фильма

Скриншоты

Текст басни Крылова

Беда, коль пироги начнёт печи сапожник,
А сапоги тачать пирожник,
И дело не пойдёт на лад.
Да и примечено стократ,
Что кто за ремесло чужое браться любит,
Тот завсегда других упрямей и вздорней:
Он лучше дело всё погубит,
И рад скорей
Посмешищем стать света,
Чем у честных и знающих людей
Спросить иль выслушать разумного совета.
Зубастой Щуке в мысль пришло
За кошачье приняться ремесло.
Не знаю: завистью ль её лукавый мучил,
Иль, может быть, ей рыбный стол наскучил?
Но только вздумала Кота она просить,
Чтоб взял её с собой он на охоту,
Мышей в анбаре половить.
«Да, полно, знаешь ли ты эту, свет, работу? —
Стал Щуке Васька говорить, —
Смотри, кума, чтобы не осрамиться:
Не даром говорится,
Что дело мастера боится». —
«И, полно, куманёк! Вот невидаль: мышей!
Мы лавливали и ершей». —
«Так в добрый час, пойдем!» Пошли, засели.
Натешился, наелся Кот,
И кумушку проведать он идёт;
А Щука, чуть жива, лежит, разинув рот, —
И крысы хвост у ней отъели.
Тут видя, что куме совсем не в силу труд,
Кум замертво стащил её обратно в пруд.
И дельно! Это, Щука,
Тебе наука:
Вперёд умнее быть
И за мышами не ходить.



Показать сообщения:    

Текущее время: 08-Дек 01:18

Часовой пояс: UTC + 3


Вы не можете начинать темы
Вы не можете отвечать на сообщения
Вы не можете редактировать свои сообщения
Вы не можете удалять свои сообщения
Вы не можете голосовать в опросах
Вы не можете прикреплять файлы к сообщениям
Вы не можете скачивать файлы