В прямом эфире / Õhus / In the Air (Мартинус Даане Клемет / Martinus Daane Klemet) [2009, Эстония, авторская анимация, WEBRip-AVC]


 

[Цитировать]

В прямом эфире / Õhus / In the Air
Страна: Эстония
Жанр: авторская анимация
Год выпуска: 2009
Продолжительность: 00:08:36
Перевод: не требуется
Cубтитры: нет
Режиссёр: Мартинус Даане Клемет / Martinus Daane Klemet
Описание: Однажды выясняется, что телетрансляции могут непостижимым образом воздействовать на зрителя. Всё, что демонстрируется на экране, неотвратимо отражается на окружающую действительность...
Доп. информация: Best Estonian Animation - Cultural Endowment of Estonia (2009)
Best of Festival - Melbourne International Animation Festival, Australia (2010)
Best Animation - FIA Stockholm, Sweden (2010)
Jury's Special Mention - "Animateka", Slovenia (2010)
Качество видео: WEBRip-AVC
Формат видео: MP4
Видео: 2504 kbps, 1280х720 (16:9), 25.000 fps, AVC (High@L3.1)
Аудио: 158 kbps, 44.1 kHz, 2 channels, AAC (LC)

MediaInfo

General
Complete name : In the Air (2009).mp4
Format : MPEG-4
Format profile : Base Media
Codec ID : isom
File size : 164 MiB
Duration : 8mn 36s
Overall bit rate mode : Variable
Overall bit rate : 2 665 Kbps
Encoded date : UTC 2011-03-14 18:24:06
Tagged date : UTC 2011-03-15 18:24:10
Video
ID : 1
Format : AVC
Format/Info : Advanced Video Codec
Format profile : High@L3.1
Format settings, CABAC : Yes
Format settings, ReFrames : 4 frames
Codec ID : avc1
Codec ID/Info : Advanced Video Coding
Duration : 8mn 36s
Bit rate : 2 504 Kbps
Maximum bit rate : 9 004 Kbps
Width : 1 280 pixels
Height : 720 pixels
Display aspect ratio : 16:9
Frame rate mode : Constant
Frame rate : 25.000 fps
Color space : YUV
Chroma subsampling : 4:2:0
Bit depth : 8 bits
Scan type : Progressive
Bits/(Pixel*Frame) : 0.109
Stream size : 154 MiB (94%)
Writing library : Vimeo Encoder
Encoded date : UTC 2011-03-14 18:24:06
Tagged date : UTC 2011-03-14 18:24:08
Audio
ID : 2
Format : AAC
Format/Info : Advanced Audio Codec
Format profile : LC
Codec ID : 40
Duration : 8mn 36s
Bit rate mode : Variable
Bit rate : 158 Kbps
Maximum bit rate : 266 Kbps
Channel(s) : 2 channels
Channel positions : Front: L R
Sampling rate : 44.1 KHz
Compression mode : Lossy
Stream size : 9.71 MiB (6%)
Encoded date : UTC 2011-03-14 18:24:08
Tagged date : UTC 2011-03-14 18:24:08

Скриншот c названием фильма

Скриншоты




Показать сообщения:    

Текущее время: 08-Дек 09:06

Часовой пояс: UTC + 3


Вы не можете начинать темы
Вы не можете отвечать на сообщения
Вы не можете редактировать свои сообщения
Вы не можете удалять свои сообщения
Вы не можете голосовать в опросах
Вы не можете прикреплять файлы к сообщениям
Вы не можете скачивать файлы