Молния / Rāvējslēdzējs - Четыре выпуска (Майа Бренце / Maija Brence, Паулс Тимротс / Pauls Timrots, Сигне Баумане / Signe Baumane, Янис Карклиньш / Jānis Kārkliņš) [1991, Латвия, авторская анимация, DVDRip]


 

[Цитировать]

Молния / Rāvējslēdzējs (четыре выпуска)
Анимационный альманах, представляющий дебютные режиссёрские работы латышских мультипликаторов.
Молния №1 - Двое / Rāvējslēdzējs №1 - Divi
Страна: Латвия
Жанр: авторская анимация
Год выпуска: 1991
Продолжительность: 00:02:00
Перевод: не требуется
Cубтитры: нет
Режиссёр: Майя Бренце / Maija Brence
Описание: Романтическое знакомство платья и брюк, висящих на одной бельевой верёвке.
Качество видео: DVDRip
Формат видео: AVI
Видео: 2206 kbps, 720х544 (4:3), 25.000 fps, MPEG-4 Visual (XviD)
Аудио: 128 kbps, 48.0 kHz, 2 channels, MPEG Audio (MP3)

MediaInfo

General
Complete name : Ravejsledzejs 1.avi
Format : AVI
Format/Info : Audio Video Interleave
File size : 33.8 MiB
Duration : 2mn 0s
Overall bit rate : 2 342 Kbps
Writing application : VirtualDubMod 1.5.4.1 (build 2178/release)
Writing library : VirtualDubMod build 2178/release
Video
ID : 0
Format : MPEG-4 Visual
Format profile : Advanced Simple@L5
Format settings, BVOP : 1
Format settings, QPel : No
Format settings, GMC : No warppoints
Format settings, Matrix : Custom
Codec ID : XVID
Codec ID/Hint : XviD
Duration : 2mn 0s
Bit rate : 2 206 Kbps
Width : 720 pixels
Height : 544 pixels
Display aspect ratio : 4:3
Frame rate : 25.000 fps
Color space : YUV
Chroma subsampling : 4:2:0
Bit depth : 8 bits
Scan type : Progressive
Compression mode : Lossy
Bits/(Pixel*Frame) : 0.225
Stream size : 31.8 MiB (94%)
Writing library : XviD 1.0.0 (UTC 2004-05-09)
Audio
ID : 1
Format : MPEG Audio
Format version : Version 1
Format profile : Layer 3
Mode : Joint stereo
Mode extension : MS Stereo
Codec ID : 55
Codec ID/Hint : MP3
Duration : 2mn 0s
Bit rate mode : Constant
Bit rate : 128 Kbps
Channel(s) : 2 channels
Sampling rate : 48.0 KHz
Compression mode : Lossy
Stream size : 1.85 MiB (5%)
Alignment : Aligned on interleaves
Interleave, duration : 80 ms (2.01 video frames)
Interleave, preload duration : 504 ms
Language : Latvian, Lettish

Скриншот c названием фильма

Скриншоты

Молния №2 - Ну и / Rāvējslēdzējs №2 - Nu un
Страна: Латвия
Жанр: авторская анимация
Год выпуска: 1991
Продолжительность: 00:00:50
Перевод: не требуется
Субтитры: нет
Режиссёр: Паулс Тимротс / Pauls Timrots
Описание: Абсурдный сюжет о том, как проходит день.
Качество видео: DVDRip
Формат видео: AVI
Видео: 2826 kbps, 720х576 (5:4), 25.000 fps, MPEG-4 Visual (XviD)
Аудио: 128 kbps, 48.0 kHz, 2 channels, MPEG Audio (MP3)

MediaInfo

General
Complete name : Ravejsledzejs 2.avi
Format : AVI
Format/Info : Audio Video Interleave
File size : 18.0 MiB
Duration : 50s 880ms
Overall bit rate : 2 963 Kbps
Writing application : VirtualDubMod 1.5.4.1 (build 2178/release)
Writing library : VirtualDubMod build 2178/release
Video
ID : 0
Format : MPEG-4 Visual
Format profile : Advanced Simple@L5
Format settings, BVOP : 1
Format settings, QPel : No
Format settings, GMC : No warppoints
Format settings, Matrix : Custom
Codec ID : XVID
Codec ID/Hint : XviD
Duration : 50s 880ms
Bit rate : 2 826 Kbps
Width : 720 pixels
Height : 576 pixels
Display aspect ratio : 5:4
Frame rate : 25.000 fps
Standard : PAL
Color space : YUV
Chroma subsampling : 4:2:0
Bit depth : 8 bits
Scan type : Progressive
Compression mode : Lossy
Bits/(Pixel*Frame) : 0.273
Stream size : 17.1 MiB (95%)
Writing library : XviD 1.2.1 (UTC 2008-12-04)
Audio
ID : 1
Format : MPEG Audio
Format version : Version 1
Format profile : Layer 3
Mode : Joint stereo
Mode extension : MS Stereo
Codec ID : 55
Codec ID/Hint : MP3
Duration : 50s 832ms
Bit rate mode : Constant
Bit rate : 128 Kbps
Channel(s) : 2 channels
Sampling rate : 48.0 KHz
Compression mode : Lossy
Stream size : 794 KiB (4%)
Alignment : Aligned on interleaves
Interleave, duration : 81 ms (2.02 video frames)
Interleave, preload duration : 504 ms
Writing library : LAME3.98.2
Language : Latvian, Lettish

Скриншот c названием фильма

Скриншоты

Молния №3 - Про ведьму и корову / Rāvējslēdzējs №3 - Ragana un govs
Страна: Латвия
Жанр: авторская анимация
Год выпуска: 1991
Продолжительность: 00:02:17
Перевод: не требуется
Субтитры: нет
Режиссёр: Сигне Баумане / Signe Baumane
Описание: Очень маленькая ведьма пытается подоить очень большую корову.
Качество видео: DVDRip
Формат видео: AVI
Видео: 2028 kbps, 720х576 (5:4), 25.000 fps, MPEG-4 Visual (XviD)
Аудио: 128 kbps, 48.0 kHz, 2 channels, MPEG Audio (MP3)

MediaInfo

General
Complete name : Ravejsledzejs 3.avi
Format : AVI
Format/Info : Audio Video Interleave
File size : 35.5 MiB
Duration : 2mn 17s
Overall bit rate : 2 163 Kbps
Writing application : VirtualDubMod 1.5.4.1 (build 2178/release)
Writing library : VirtualDubMod build 2178/release
Video
ID : 0
Format : MPEG-4 Visual
Format profile : Advanced Simple@L5
Format settings, BVOP : 1
Format settings, QPel : No
Format settings, GMC : No warppoints
Format settings, Matrix : Custom
Codec ID : XVID
Codec ID/Hint : XviD
Duration : 2mn 17s
Bit rate : 2 028 Kbps
Width : 720 pixels
Height : 576 pixels
Display aspect ratio : 5:4
Frame rate : 25.000 fps
Standard : PAL
Color space : YUV
Chroma subsampling : 4:2:0
Bit depth : 8 bits
Scan type : Progressive
Compression mode : Lossy
Bits/(Pixel*Frame) : 0.196
Stream size : 33.3 MiB (94%)
Writing library : XviD 1.2.1 (UTC 2008-12-04)
Audio
ID : 1
Format : MPEG Audio
Format version : Version 1
Format profile : Layer 3
Mode : Joint stereo
Mode extension : MS Stereo
Codec ID : 55
Codec ID/Hint : MP3
Duration : 2mn 17s
Bit rate mode : Constant
Bit rate : 128 Kbps
Channel(s) : 2 channels
Sampling rate : 48.0 KHz
Compression mode : Lossy
Stream size : 2.10 MiB (6%)
Alignment : Aligned on interleaves
Interleave, duration : 80 ms (2.01 video frames)
Interleave, preload duration : 504 ms
Writing library : LAME3.98.
ъ©YZТhЖ3ь:
Language : Latvian, Lettish

Скриншот c названием фильма

Скриншоты

Молния №4 - Краткий курс / Rāvējslēdzējs №4 - Īsais kurss
Страна: Латвия
Жанр: авторская анимация
Год выпуска: 1991
Продолжительность: 00:02:34
Перевод: не требуется
Субтитры: нет
Режиссёр: Янис Карклиньш / Jānis Kārkliņš
Описание: Краткий курс неудачного построения коммунизма во всём мире.
Качество видео: DVDRip
Формат видео: AVI
Видео: 2206 kbps, 720х576 (5:4), 25.000 fps, MPEG-4 Visual (XviD)
Аудио: 128 kbps, 48.0 kHz, 2 channels, MPEG Audio (MP3)

MediaInfo

General
Complete name : Ravejsledzejs 4.avi
Format : AVI
Format/Info : Audio Video Interleave
File size : 45.0 MiB
Duration : 2mn 34s
Overall bit rate : 2 443 Kbps
Writing application : VirtualDubMod 1.5.4.1 (build 2178/release)
Writing library : VirtualDubMod build 2178/release
Video
ID : 0
Format : MPEG-4 Visual
Format profile : Advanced Simple@L5
Format settings, BVOP : 1
Format settings, QPel : No
Format settings, GMC : No warppoints
Format settings, Matrix : Custom
Codec ID : XVID
Codec ID/Hint : XviD
Duration : 2mn 34s
Bit rate : 2 308 Kbps
Width : 720 pixels
Height : 576 pixels
Display aspect ratio : 5:4
Frame rate : 25.000 fps
Standard : PAL
Color space : YUV
Chroma subsampling : 4:2:0
Bit depth : 8 bits
Scan type : Progressive
Compression mode : Lossy
Bits/(Pixel*Frame) : 0.223
Stream size : 42.5 MiB (94%)
Writing library : XviD 1.2.1 (UTC 2008-12-04)
Audio
ID : 1
Format : MPEG Audio
Format version : Version 1
Format profile : Layer 3
Mode : Joint stereo
Mode extension : MS Stereo
Codec ID : 55
Codec ID/Hint : MP3
Duration : 2mn 34s
Bit rate mode : Constant
Bit rate : 128 Kbps
Channel(s) : 2 channels
Sampling rate : 48.0 KHz
Compression mode : Lossy
Stream size : 2.36 MiB (5%)
Alignment : Aligned on interleaves
Interleave, duration : 80 ms (2.01 video frames)
Interleave, preload duration : 504 ms
Writing library : LAME3.98.2ЄЄ Дд’(лЋL
Language : Latvian, Lettish

Скриншот c названием фильма

Скриншоты




Показать сообщения:    

Текущее время: 10-Дек 13:50

Часовой пояс: UTC + 3


Вы не можете начинать темы
Вы не можете отвечать на сообщения
Вы не можете редактировать свои сообщения
Вы не можете удалять свои сообщения
Вы не можете голосовать в опросах
Вы не можете прикреплять файлы к сообщениям
Вы не можете скачивать файлы