Бледный мальчик. Красный луч (Андрей Бахурин) [2011, Россия, Анимационный фильм, DVDScreener]


 

[Цитировать]

Бледный мальчик. Красный луч.
Страна: Россия
Жанр: Анимационный фильм
Год выпуска: 2011
Продолжительность: 00:06:17
Перевод: Не требуется
Cубтитры: нет
Режиссер: Андрей Бахурин
Описание: Послушайте, любезный, вы что, правда верите в секретное оружие против несогласных «красный луч»?
Доп. информация: Фильм - участник кинофестивалей:
- Открытый фестиваль анимационного кино, Суздаль (Россия), 2012
- Большой фестиваль мультфильмов, Москва (Россия), 2012
Качество видео: DVDScreener
Формат видео: AVI
Видео: XVID, 720x416, 1.731, 25fps, 847kbps
Аудио: MPEG Layer 3, 48kHz, 192kbps, 2ch

MediaInfo

Полное имя : Бледный мальчик.avi
Формат : AVI
Формат/Информация : Audio Video Interleave
Размер файла : 47,2 Мбайт
Продолжительность : 6 м. 17 с.
Общий поток : 1049 Кбит/сек
Программа кодирования : VirtualDubMod 1.5.10.3 | www.virtualdub-fr.org || (build 2550/release)
Библиотека кодирования : VirtualDubMod build 2550/release
Видео
Идентификатор : 0
Формат : MPEG-4 Visual
Профиль формата : Advanced Simple@L5
Параметр BVOP формата : 1
Параметр QPel формата : Нет
Параметр GMC формата : Без точки перехода
Параметр матрицы формата : Default (H.263)
Идентификатор кодека : DIVX
Идентификатор кодека/Информация : Project Mayo
Идентификатор кодека/Подсказка : DivX 4
Продолжительность : 6 м. 17 с.
Битрейт : 847 Кбит/сек
Ширина : 720 пикселей
Высота : 416 пикселей
Соотношение сторон : 1,731
Частота кадров : 25,000 кадров/сек
Цветовое пространство : YUV
Субдискретизация насыщенности : 4:2:0
Битовая глубина : 8 бит
Тип развёртки : Прогрессивная
Метод сжатия : С потерями
Бит/(Пиксели*Кадры) : 0.113
Размер потока : 38,1 Мбайт (81%)
Библиотека кодирования : XviD 1.2.1 (UTC 2008-12-04)
Аудио
Идентификатор : 1
Формат : MPEG Audio
Версия формата : Version 1
Профиль формата : Layer 3
Идентификатор кодека : 55
Идентификатор кодека/Подсказка : MP3
Продолжительность : 6 м. 17 с.
Вид битрейта : Постоянный
Битрейт : 192 Кбит/сек
Каналы : 2 канала
Частота : 48,0 КГц
Метод сжатия : С потерями
Размер потока : 8,64 Мбайт (18%)
Выравнивание : Соединение по промежуткам
Продолжительность промежутка : 40 мс. (1,00 видеокадр)
Время предзагрузки промежутка : 504 мс.
Библиотека кодирования : LAME3.99r
Настройки программы : -m s -V 4 -q 0 -lowpass 18.6 -b 192

Скриншот c названием фильма

Скриншоты






Показать сообщения:    

Текущее время: 02-Дек 21:08

Часовой пояс: UTC + 3


Вы не можете начинать темы
Вы не можете отвечать на сообщения
Вы не можете редактировать свои сообщения
Вы не можете удалять свои сообщения
Вы не можете голосовать в опросах
Вы не можете прикреплять файлы к сообщениям
Вы не можете скачивать файлы